首页 » 特摄 » [MagicStar] 魔进战队煌辉者番外篇 约顿娜 / 魔進戦隊キラメイジャー スピンオフ ヨドンナ EP02 [WEBDL] [1080p] [TTFC]【生】
  • 资源分类:BT分享»特摄
  • 资源提供:特摄连载
  • 分享情况:  种子:27,下载:136,完成:45
  • 健  康  度:20%
  • 文件大小:997.7MB  (查看文件详情)
  • 发布日期:2021/09/12 14:59:59
  • 下载本站资源,您必须安装相应的P2P下载软件。我们推荐使用BitComet正式版下载BT资源,eMule下载电驴资源。
  • 该资源由网友 特摄连载 提供,分享目的仅供大家学习与参考,如有侵权,请联系:[email protected]及时删除!

资源介绍 | 下载本资源


HD 1080p from TTFC.
alt text
alt text

General Unique ID                      : 233443720939590645463588153847403604675 (0xAF9FA0104C0CA4B27E62EB0688C16AC3) Complete name                  : [MagicStar] Mashin Sentai Kiramager Spin-Off - Yodonna EP02 [WEBDL] [1080p].mkv Format                         : Matroska Format version                 : Version 4 File size                      : 998 MiB Duration                       : 30 min 13 s Overall bit rate               : 4 616 kb/s Encoded date                   : UTC 2021-09-12 01:44:07 Writing application            : mkvmerge v50.0.0 ('Awakenings') 64-bit Writing library                : libebml v1.4.0 + libmatroska v1.6.2  Video ID                             : 1 Format                         : AVC Format/Info                    : Advanced Video Codec Format profile                 : [email protected] Format settings                : CABAC / 4 Ref Frames Format settings, CABAC         : Yes Format settings, Reference fra : 4 frames Format settings, GOP           : M=3, N=48 Codec ID                       : V_MPEG4/ISO/AVC Duration                       : 30 min 13 s Bit rate                       : 4 207 kb/s Width                          : 1 920 pixels Height                         : 1 080 pixels Display aspect ratio           : 16:9 Frame rate mode                : Constant Frame rate                     : 23.976 (24000/1001) FPS Color space                    : YUV Chroma subsampling             : 4:2:0 Bit depth                      : 8 bits Scan type                      : Progressive Bits/(Pixel*Frame)             : 0.085 Stream size                    : 909 MiB (91%) Writing library                : x264 core 148 Encoding settings              : cabac=1 / ref=4 / deblock=1:1:1 / analyse=0x3:0x113 / me=hex / subme=7 / psy=1 / psy_rd=0.40:0.00 / mixed_ref=1 / me_range=16 / chroma_me=1 / trellis=1 / 8x8dct=1 / cqm=0 / deadzone=21,11 / fast_pskip=1 / chroma_qp_offset=-2 / threads=12 / lookahead_threads=2 / sliced_threads=0 / nr=0 / decimate=1 / interlaced=0 / bluray_compat=0 / constrained_intra=0 / bframes=2 / b_pyramid=2 / b_adapt=0 / b_bias=0 / direct=1 / weightb=1 / open_gop=0 / weightp=2 / keyint=48 / keyint_min=25 / scenecut=0 / intra_refresh=0 / rc_lookahead=40 / rc=crf / mbtree=1 / crf=23.0 / qcomp=0.60 / qpmin=0 / qpmax=69 / qpstep=4 / vbv_maxrate=6000 / vbv_bufsize=6000 / crf_max=0.0 / nal_hrd=none / filler=0 / ip_ratio=1.40 / aq=1:0.60 Default                        : Yes Forced                         : No  Audio ID                             : 2 Format                         : AAC LC Format/Info                    : Advanced Audio Codec Low Complexity Codec ID                       : A_AAC-2 Duration                       : 30 min 13 s Bit rate                       : 406 kb/s Channel(s)                     : 2 channels Channel layout                 : L R Sampling rate                  : 48.0 kHz Frame rate                     : 46.875 FPS (1024 SPF) Compression mode               : Lossy Delay relative to video        : 9 ms Stream size                    : 87.9 MiB (9%) Language                       : Japanese Default                        : Yes Forced                         : No

文件信息 | 下载本资源 文件总数:1,文件总大小:997.7MB

Info Hash:1e677c95d38d86bd5165bd97b417f139220f1a3b

文件信息:1 个文件, 总大小 997.7MB

Tracker:http://tracker.xfapi.top:6868/announce

Tracker:http://tracker.xfapi.top:6868/scrape

 
  • [MagicStar] Mashin Sentai Kiramager Spin-Off - Yodonna EP02 [WEBDL] [1080p].mkv(997.7MB)
 

网友评论(0) | 下载本资源

正在加载评论,请稍候......
发表我的看法(评论内容长度最多允许 1000 字)
评论内容
  
发表评论小贴士:
1.类似「顶、沙发」之类没有营养的文字,对勤劳贡献的发布者来说是令人沮丧的反馈信息。
2.提问之前请再仔细看一遍楼主的说明,或许是您遗漏了。
3.勿催片。请相信动漫字幕组对分享是富有激情的,如果确有更新资源,您一定能搜索到。
4.请勿到处挖坑绊人、招贴广告。既占空间让人厌烦,又没人会搭理,于人于己都无利。
5.如果您发现自己的评论不见了,请参考以上4条。
验证码