旋风动漫BT资源发布索引 | 汇聚动漫BT/ED资源
  佐藤大辅原作,佐藤霄吉作画的漫画作品「学园默示录 HIGHSCHOOL OF THE DEAD」于月刊「Dragon Age」2006年的9月号上开始连载,并在2009年1月宣布休刊。休刊一年后,于2010年2月9日发售的「Dragon Age」3月号上重新连载,同时也公布了其动画化消息。    动画的监督将会由曾经负责「DEATH NOTE」、「黒冢 KUROZUKA」、「青之文学系列 - 盛开的樱花林下」等作品监督工作的荒木哲郎担任。 而剧本方面则有黒田洋介负责,他曾经参与制作的动画作品包括「魔法少女砂沙美」、「极上生徒会」、「机动战士00」、「旋风管家」等。 故事简介 在一个平静的一天, 几小时前还是和平的学校在几小时后就僵尸成群,被僵尸咬到的人也会变成僵尸,这些僵尸被称作【死体】。幸存下来的几个人拿起了武器,与活死人僵尸对抗,他们是否能冲出重重包围来到安全地带?这全靠他们的努力了。当整个个世界陷入了绝望,到底是什么改变了世界?你?我?还是神已经抛弃了我们?这究竟是为什么?疑惑,不解,猜忌,人性的挣扎,都暂且放下,为了生存去奋斗吧!不要让恐惧遮蔽了你的眼睛与心灵。 网盘: [佐藤ショウジ][学园默示录][角川][全7卷][中文].rar:  https://url82.ctfile.com/f/1800882-697325397-23f1c7?p=1982  (访问密码:1982)
10/19 11:46 环球资源
  作者:   [日] 山原义人 出版社:   江苏美术出版社 出版年:  2007-8 内容简介  · · · · · · 中学生天地志狼与真澄在乘飞机前往中国旅行时,两人竟被神龙带到了中国三国时代,出现在刘备的军队与曹操的军队交战的战场上,并且被卷入了双方的战争。烽烟四起,群雄逐鹿,为了保护真澄,志狼若练各种本领。于是,一个个不凡的三国故事由此展开。 网盘: [山原义人][龙狼传Ⅰ][东立] Vol.01.rar:  https://url82.ctfile.com/f/1800882-691639692-8f4f6c?p=1982  (访问密码:1982) [山原义人][龙狼传Ⅰ][东立] Vol.02.rar:  https://url82.ctfile.com/f/1800882-691639695-b8d893?p=1982  (访问密码:1982) [山原义人][龙狼传Ⅰ][东立] Vol.03.rar:  https://url82.ctfile.com/f/1800882-691639696-720c99?p=1982  (访问密码:1982) [山原义人][龙狼传Ⅰ][东立] Vol.04.rar:  https://url82.ctfile.com/f/1800882-691639712-daa818?p=1982  (访问密码:1982) [山原义人][龙狼传Ⅰ][东立] Vol.05.rar:  https://url82.ctfile.com/f/1800882-691639718-b744c6?p=1982  (访问密码:1982) [山原义人][龙狼传Ⅰ][东立] Vol.06.rar:  https://url82.ctfile.com/f/1800882-691639726-826739?p=1982  (访问密码:1982) [山原义人][龙狼传Ⅰ][东立] Vol.07.rar:  https://url82.ctfile.com/f/1800882-691639752-026dbe?p=1982  (访问密码:1982) [山原义人][龙狼传Ⅰ][东立] Vol.08.rar:  https://url82.ctfile.com/f/1800882-691639747-30a0a0?p=1982  (访问密码:1982) [山原义人][龙狼传Ⅰ][东立] Vol.09.rar:  https://url82.ctfile.com/f/1800882-691639762-ef0174?p=1982  (访问密码:1982) [山原义人][龙狼传Ⅰ][东立] Vol.10.rar:  https://url82.ctfile.com/f/1800882-691639768-011889?p=1982  (访问密码:1982) [山原义人][龙狼传Ⅰ][东立] Vol.11.rar:  https://url82.ctfile.com/f/1800882-691639782-cb1873?p=1982  (访问密码:1982) [山原义人][龙狼传Ⅰ][东立] Vol.12.rar:  https://url82.ctfile.com/f/1800882-691639794-a6853a?p=1982  (访问密码:1982) [山原义人][龙狼传Ⅰ][东立] Vol.13.rar:  https://url82.ctfile.com/f/1800882-691639798-27f384?p=1982  (访问密码:1982) [山原义人][龙狼传Ⅰ][东立] Vol.14.rar:  https://url82.ctfile.com/f/1800882-691639807-7a150f?p=1982  (访问密码:1982) [山原义人][龙狼传Ⅰ][东立] Vol.15.rar:  https://url82.ctfile.com/f/1800882-691639835-841488?p=1982  (访问密码:1982) [山原义人][龙狼传Ⅰ][东立] Vol.16.rar:  https://url82.ctfile.com/f/1800882-691639845-e50663?p=1982  (访问密码:1982) [山原义人][龙狼传Ⅰ][东立] Vol.17.rar:  https://url82.ctfile.com/f/1800882-691639887-249f25?p=1982  (访问密码:1982) [山原义人][龙狼传Ⅰ][东立] Vol.18.rar:  https://url82.ctfile.com/f/1800882-691639963-22df36?p=1982  (访问密码:1982) [山原义人][龙狼传Ⅰ][东立] Vol.19.rar:  https://url82.ctfile.com/f/1800882-691639946-a83b19?p=1982  (访问密码:1982) [山原义人][龙狼传Ⅰ][东立] Vol.20.rar:  https://url82.ctfile.com/f/1800882-691639987-fc28ea?p=1982  (访问密码:1982) [山原义人][龙狼传Ⅰ][东立] Vol.21.rar:  https://url82.ctfile.com/f/1800882-691640027-e60d66?p=1982  (访问密码:1982) [山原义人][龙狼传Ⅰ][东立] Vol.22.rar:  https://url82.ctfile.com/f/1800882-691640052-fb93da?p=1982  (访问密码:1982) [山原义人][龙狼传Ⅰ][东立] Vol.23.rar:  https://url82.ctfile.com/f/1800882-691640064-c3eb00?p=1982  (访问密码:1982) [山原义人][龙狼传Ⅰ][东立] Vol.24.rar:  https://url82.ctfile.com/f/1800882-691640120-b96e2d?p=1982  (访问密码:1982) [山原义人][龙狼传Ⅰ][东立] Vol.25.rar:  https://url82.ctfile.com/f/1800882-691640146-59710c?p=1982  (访问密码:1982) [山原义人][龙狼传Ⅰ][东立] Vol.26.rar:  https://url82.ctfile.com/f/1800882-691640159-f9f2d1?p=1982  (访问密码:1982) [山原义人][龙狼传Ⅰ][东立] Vol.27.rar:  https://url82.ctfile.com/f/1800882-691640226-a09714?p=1982  (访问密码:1982) [山原义人][龙狼传Ⅰ][东立] Vol.28.rar:  https://url82.ctfile.com/f/1800882-691640272-94ef87?p=1982  (访问密码:1982) [山原义人][龙狼传Ⅰ][东立] Vol.29.rar:  https://url82.ctfile.com/f/1800882-691640358-d845d5?p=1982  (访问密码:1982) [山原义人][龙狼传Ⅰ][东立] Vol.30.rar:  https://url82.ctfile.com/f/1800882-691640475-33b232?p=1982  (访问密码:1982) [山原义人][龙狼传Ⅰ][东立] Vol.31.rar:  https://url82.ctfile.com/f/1800882-691640518-9b912b?p=1982  (访问密码:1982) [山原义人][龙狼传Ⅰ][东立] Vol.32.rar:  https://url82.ctfile.com/f/1800882-691640553-7850d2?p=1982  (访问密码:1982) [山原义人][龙狼传Ⅰ][东立] Vol.33.rar:  https://url82.ctfile.com/f/1800882-691640657-7d8763?p=1982  (访问密码:1982) [山原义人][龙狼传Ⅰ][东立] Vol.34.rar:  https://url82.ctfile.com/f/1800882-691640727-02ff28?p=1982  (访问密码:1982) [山原义人][龙狼传Ⅰ][东立] Vol.35.rar:  https://url82.ctfile.com/f/1800882-691640779-9ed100?p=1982  (访问密码:1982) [山原义人][龙狼传Ⅰ][东立] Vol.36.rar:  https://url82.ctfile.com/f/1800882-691640889-6a5daa?p=1982  (访问密码:1982) [山原义人][龙狼传Ⅰ][东立] Vol.37.rar:  https://url82.ctfile.com/f/1800882-691640946-4492cc?p=1982  (访问密码:1982) [山原义人][龙狼传Ⅱ中原缭乱篇][东立] Vol.01.rar:  https://url82.ctfile.com/f/1800882-691640930-bd980b?p=1982  (访问密码:1982) [山原义人][龙狼传Ⅱ中原缭乱篇][东立] Vol.02.rar:  https://url82.ctfile.com/f/1800882-691640991-8f9848?p=1982  (访问密码:1982) [山原义人][龙狼传Ⅱ中原缭乱篇][东立] Vol.03.rar:  https://url82.ctfile.com/f/1800882-691641042-84405c?p=1982  (访问密码:1982) [山原义人][龙狼传Ⅱ中原缭乱篇][东立] Vol.04.rar:  https://url82.ctfile.com/f/1800882-691641057-07cbc5?p=1982  (访问密码:1982) [山原义人][龙狼传Ⅱ中原缭乱篇][东立] Vol.05.rar:  https://url82.ctfile.com/f/1800882-691641139-f42179?p=1982  (访问密码:1982) [山原义人][龙狼传Ⅱ中原缭乱篇][东立] Vol.06.rar:  https://url82.ctfile.com/f/1800882-691641159-f52a25?p=1982  (访问密码:1982) [山原义人][龙狼传Ⅱ中原缭乱篇][东立] Vol.07.rar:  https://url82.ctfile.com/f/1800882-691641178-f1e201?p=1982  (访问密码:1982) [山原义人][龙狼传Ⅱ中原缭乱篇][东立] Vol.08.rar:  https://url82.ctfile.com/f/1800882-691641202-8b8563?p=1982  (访问密码:1982) [山原义人][龙狼传Ⅱ中原缭乱篇][东立] Vol.09.rar:  https://url82.ctfile.com/f/1800882-691641213-579d4b?p=1982  (访问密码:1982) [山原义人][龙狼传Ⅱ中原缭乱篇][东立] Vol.10.rar:  https://url82.ctfile.com/f/1800882-691641262-667d55?p=1982  (访问密码:1982) [山原义人][龙狼传Ⅱ中原缭乱篇][东立] Vol.11.rar:  https://url82.ctfile.com/f/1800882-691641330-614f3d?p=1982  (访问密码:1982) [山原义人][龙狼传Ⅱ中原缭乱篇][东立] Vol.12.rar:  https://url82.ctfile.com/f/1800882-691641380-7ff41e?p=1982  (访问密码:1982) [山原义人][龙狼传Ⅱ中原缭乱篇][东立] Vol.13.rar:  https://url82.ctfile.com/f/1800882-691641433-737fda?p=1982  (访问密码:1982) [山原义人][龙狼传Ⅱ中原缭乱篇][东立] Vol.14.rar:  https://url82.ctfile.com/f/1800882-691641458-37a8fd?p=1982  (访问密码:1982) [山原义人][龙狼传Ⅱ中原缭乱篇][东立] Vol.15.rar:  https://url82.ctfile.com/f/1800882-691641525-bf7e74?p=1982  (访问密码:1982) [山原义人][龙狼传Ⅱ中原缭乱篇][东立] Vol.16.rar:  https://url82.ctfile.com/f/1800882-691641595-9802d9?p=1982  (访问密码:1982) [山原义人][龙狼传Ⅱ中原缭乱篇][东立] Vol.17.rar:  https://url82.ctfile.com/f/1800882-691641607-382f4d?p=1982  (访问密码:1982) 搜索 复制
10/10 14:46 环球资源
作者:  高橋ヒロシ 出版社:  秋田書店 副标题:  热血高校 完全版 出版年:  2006-6-8 装帧:  A5 丛书:   CROWS 内容简介  · · · · · · ヤンキー漫画の金字塔!! 世界で最も売れているヤンキー漫画「WORST」の前作「クローズ」。今なお新しいファンを獲得し続ける名作を、完全版コミック化!! カラー原稿も再現!! 【注】この本の大きさは、通常の少年チャンピオン・コミックスより大きなサイズのA5判です。 网盘: 001-热血高校第一部-CROWS热血高校-坊屋春道篇.rar:  https://url82.ctfile.com/f/1800882-690532415-7b8a26?p=1982  (访问密码:1982) 002-热血高校第二部-WORST-极恶王-月岛花篇1.rar:  https://url82.ctfile.com/f/1800882-690532926-eac03e?p=1982  (访问密码:1982) 003-热血高校第三部-WORST-极恶王-月岛花篇2.rar:  https://url82.ctfile.com/f/1800882-690532482-a27925?p=1982  (访问密码:1982) 004-热血高校CROWS ZEROⅠ前传.rar:  https://url82.ctfile.com/f/1800882-690532519-ebeb29?p=1982  (访问密码:1982) 005-热血高校CROWS ZEROⅡ 前传.rar:  https://url82.ctfile.com/f/1800882-690532654-595bfe?p=1982  (访问密码:1982) 006-热血高校CROWS Linda Linda林田惠外传.rar:  https://url82.ctfile.com/f/1800882-690532533-e6bddc?p=1982  (访问密码:1982) 007-热血高校WORST-铁生外传.rar:  https://url82.ctfile.com/f/1800882-690532539-fd2e38?p=1982  (访问密码:1982) 008-热血高校CROWS Explode.rar:  https://url82.ctfile.com/f/1800882-690532561-047d1d?p=1982  (访问密码:1982) 009-热血高校CROW-九头神龙男外传.rar:  https://url82.ctfile.com/f/1800882-690532805-1d8c85?p=1982  (访问密码:1982) 初代武装战线-CH-001.rar:  https://url82.ctfile.com/f/1800882-690532658-a1df18?p=1982  (访问密码:1982) 初代武装战线-CH-002.rar:  https://url82.ctfile.com/f/1800882-690532659-8d1034?p=1982  (访问密码:1982) 初代武装战线-CH-003.rar:  https://url82.ctfile.com/f/1800882-690532662-b3eff4?p=1982  (访问密码:1982) 初代武装战线-CH-004.rar:  https://url82.ctfile.com/f/1800882-690532680-ba1e8a?p=1982  (访问密码:1982)
10/09 11:47 环球资源
  作者:   [日本] 井上雄彦 出版社:   长春出版社 原作名:  SLAM DUNK 完全版 出版年:  2012-12-21 丛书:   灌篮高手 内容简介  · · · · · · 毫无疑问,《灌篮高手》的主人公是樱木花道。因为篮球队只有这一位在高中之前对篮球一无所知,而偏偏又经历了对常人而言几乎不可能完成的训练,在一场又一场的群英大赛中层层递进,令人惊叹佩服。他不仅有天才般的身体能动素质,还有从底层摸打滚爬历练而出的不屈精神!此外,还有惊才绝艳且又孤高的王牌球员流川枫;曾经集丰富经验与三分球绝技,却又偶然失足的初中MVP球员三井寿;拥有电光火石般敏捷速度技巧,可又在体格上略逊半分的宫城良田;以及作为整支球队中流砥柱而又压力山大的赤木刚宪……他们的历经磨砺的光辉,也贯穿着整部《灌篮高手》。这部漫画以向着全国联赛的目标前进为导线,刻绘了几名湘北篮球队领军人物生活、训练、比赛等等一系列事情,再将他们闪耀的光点一一联合,升华出整个篮球队的精神,感动了看着他们的所有人。当然,轻松与幽默也时时调节着气氛,调动读者最欢悦的欣喜之情。 网盘: SLAM_DUNK-10日後.rar:  https://url82.ctfile.com/f/1800882-690144499-6d154c?p=1982  (访问密码:1982) SLAM_DUNK-剧场版漫画.rar:  https://url82.ctfile.com/f/1800882-690144506-8a194a?p=1982  (访问密码:1982) SLAM_DUNK-原画集.rar:  https://url82.ctfile.com/f/1800882-690144532-52f500?p=1982  (访问密码:1982) Vol_01.rar:  https://url82.ctfile.com/f/1800882-690144605-8a52a9?p=1982  (访问密码:1982) Vol_02.rar:  https://url82.ctfile.com/f/1800882-690144602-99cb99?p=1982  (访问密码:1982) Vol_03.rar:  https://url82.ctfile.com/f/1800882-690144621-67d110?p=1982  (访问密码:1982) Vol_04.rar:  https://url82.ctfile.com/f/1800882-690144657-c4d5da?p=1982  (访问密码:1982) Vol_05.rar:  https://url82.ctfile.com/f/1800882-690144651-fc6664?p=1982  (访问密码:1982) Vol_06.rar:  https://url82.ctfile.com/f/1800882-690144671-ce93e1?p=1982  (访问密码:1982) Vol_07.rar:  https://url82.ctfile.com/f/1800882-690144789-d6b54e?p=1982  (访问密码:1982) Vol_08.rar:  https://url82.ctfile.com/f/1800882-690144793-ab2d1d?p=1982  (访问密码:1982) Vol_09.rar:  https://url82.ctfile.com/f/1800882-690144815-4f8914?p=1982  (访问密码:1982) Vol_10.rar:  https://url82.ctfile.com/f/1800882-690144837-2e84e2?p=1982  (访问密码:1982) Vol_11.rar:  https://url82.ctfile.com/f/1800882-690144840-53c47c?p=1982  (访问密码:1982) Vol_12.rar:  https://url82.ctfile.com/f/1800882-690144855-249fed?p=1982  (访问密码:1982) Vol_13.rar:  https://url82.ctfile.com/f/1800882-690144887-5d8bf0?p=1982  (访问密码:1982) Vol_14.rar:  https://url82.ctfile.com/f/1800882-690144898-091491?p=1982  (访问密码:1982) Vol_15.rar:  https://url82.ctfile.com/f/1800882-690144925-d613bc?p=1982  (访问密码:1982) Vol_16.rar:  https://url82.ctfile.com/f/1800882-690144947-8dd8ff?p=1982  (访问密码:1982) Vol_17.rar:  https://url82.ctfile.com/f/1800882-690144951-6f6d9f?p=1982  (访问密码:1982) Vol_18.rar:  https://url82.ctfile.com/f/1800882-690145018-bce62f?p=1982  (访问密码:1982) Vol_19.rar:  https://url82.ctfile.com/f/1800882-690145054-f56555?p=1982  (访问密码:1982) Vol_20.rar:  https://url82.ctfile.com/f/1800882-690145063-e914ee?p=1982  (访问密码:1982) Vol_21.rar:  https://url82.ctfile.com/f/1800882-690145092-26e38f?p=1982  (访问密码:1982) Vol_22.rar:  https://url82.ctfile.com/f/1800882-690145121-f7084f?p=1982  (访问密码:1982) Vol_23.rar:  https://url82.ctfile.com/f/1800882-690145138-8c9372?p=1982  (访问密码:1982) Vol_24.rar:  https://url82.ctfile.com/f/1800882-690145184-ebef85?p=1982  (访问密码:1982)
10/08 13:59 环球资源
HD 1080p from TTFC. General Unique ID : 14413383678025275523313712076965490543 (0xAD7EAAE5426C227E67D9C08D5732F6F) Complete name : [MagicStar] Avataro Sentai Donbrothers EP39 [WEBDL] [1080p].mkv Format : Matroska Format version : Version 4 File size : 747 MiB Duration : 23 min 35 s Overall bit rate : 4 431 kb/s Writing application : Lavf57.48.101 Writing library : Lavf57.48.101 Video ID : 1 Format : AVC Format/Info : Advanced Video Codec Format profile : [email protected] Format settings : CABAC / 4 Ref Frames Format settings, CABAC : Yes Format settings, Reference fra : 4 frames Format settings, GOP : M=3, N=48 Codec ID : V_MPEG4/ISO/AVC Duration : 23 min 34 s Width : 1 920 pixels Height : 1 080 pixels Display aspect ratio : 16:9 Frame rate mode : Constant Frame rate : 23.976 (24000/1001) FPS Color space : YUV Chroma subsampling : 4:2:0 Bit depth : 8 bits Scan type : Progressive Writing library : x264 core 148 Encoding settings : cabac=1 / ref=4 / deblock=1:1:1 / analyse=0x3:0x113 / me=hex / subme=7 / psy=1 / psy_rd=0.40:0.00 / mixed_ref=1 / me_range=16 / chroma_me=1 / trellis=1 / 8x8dct=1 / cqm=0 / deadzone=21,11 / fast_pskip=1 / chroma_qp_offset=-2 / threads=12 / lookahead_threads=2 / sliced_threads=0 / nr=0 / decimate=1 / interlaced=0 / bluray_compat=0 / constrained_intra=0 / bframes=2 / b_pyramid=2 / b_adapt=0 / b_bias=0 / direct=1 / weightb=1 / open_gop=0 / weightp=2 / keyint=48 / keyint_min=25 / scenecut=0 / intra_refresh=0 / rc_lookahead=40 / rc=crf / mbtree=1 / crf=23.0 / qcomp=0.60 / qpmin=0 / qpmax=69 / qpstep=4 / vbv_maxrate=6000 / vbv_bufsize=6000 / crf_max=0.0 / nal_hrd=none / filler=0 / ip_ratio=1.40 / aq=1:0.60 Default : Yes Forced : No Audio ID : 2 Format : AAC LC Format/Info : Advanced Audio Codec Low Complexity Codec ID : A_AAC-2 Duration : 23 min 35 s Channel(s) : 2 channels Channel layout : L R Sampling rate : 48.0 kHz Frame rate : 46.875 FPS (1024 SPF) Compression mode : Lossy Delay relative to video : -42 ms Default : Yes Forced : No
昨天 22:10 特摄连载
HD 1080p from TTFC. General Unique ID : 273688224093882062581468331780532864087 (0xCDE66F434FFFAC14CB2CADA9B2640457) Complete name : [MagicStar] Kamen Rider Geats EP13 [WEBDL] [1080p].mkv Format : Matroska Format version : Version 4 File size : 723 MiB Duration : 23 min 35 s Overall bit rate : 4 285 kb/s Writing application : Lavf57.48.101 Writing library : Lavf57.48.101 Video ID : 1 Format : AVC Format/Info : Advanced Video Codec Format profile : [email protected] Format settings : CABAC / 4 Ref Frames Format settings, CABAC : Yes Format settings, Reference fra : 4 frames Format settings, GOP : M=3, N=48 Codec ID : V_MPEG4/ISO/AVC Duration : 23 min 35 s Width : 1 920 pixels Height : 1 080 pixels Display aspect ratio : 16:9 Frame rate mode : Constant Frame rate : 23.976 (24000/1001) FPS Color space : YUV Chroma subsampling : 4:2:0 Bit depth : 8 bits Scan type : Progressive Writing library : x264 core 148 Encoding settings : cabac=1 / ref=4 / deblock=1:1:1 / analyse=0x3:0x113 / me=hex / subme=7 / psy=1 / psy_rd=0.40:0.00 / mixed_ref=1 / me_range=16 / chroma_me=1 / trellis=1 / 8x8dct=1 / cqm=0 / deadzone=21,11 / fast_pskip=1 / chroma_qp_offset=-2 / threads=12 / lookahead_threads=2 / sliced_threads=0 / nr=0 / decimate=1 / interlaced=0 / bluray_compat=0 / constrained_intra=0 / bframes=2 / b_pyramid=2 / b_adapt=0 / b_bias=0 / direct=1 / weightb=1 / open_gop=0 / weightp=2 / keyint=48 / keyint_min=25 / scenecut=0 / intra_refresh=0 / rc_lookahead=40 / rc=crf / mbtree=1 / crf=23.0 / qcomp=0.60 / qpmin=0 / qpmax=69 / qpstep=4 / vbv_maxrate=6000 / vbv_bufsize=6000 / crf_max=0.0 / nal_hrd=none / filler=0 / ip_ratio=1.40 / aq=1:0.60 Default : Yes Forced : No Audio ID : 2 Format : AAC LC Format/Info : Advanced Audio Codec Low Complexity Codec ID : A_AAC-2 Duration : 23 min 35 s Channel(s) : 2 channels Channel layout : L R Sampling rate : 48.0 kHz Frame rate : 46.875 FPS (1024 SPF) Compression mode : Lossy Delay relative to video : -42 ms Default : Yes Forced : No
昨天 22:10 特摄连载
HD 1080p from Prime Video. Use CBR bitrate mode. We are planning to upload all prime video japan Dramas and Movies, we need your Support! Support Us Ali (Zhifubao / QR code): https://i.ibb.co/FWV2ggm/1660626347125.png PayPalMe: https://www.paypal.com/paypalme/sakuragikenji General Unique ID : 8071759461206480435472835768981807269 (0x61290779ACD791DDD168E96602E60A5) Complete name : Ultraman.Decker.EP19.1080p.AMZN.WEB-DL.DDP2.0.H.264-MagicStar.mkv Format : Matroska Format version : Version 4 File size : 1.57 GiB Duration : 24 min 35 s Overall bit rate mode : Constant Overall bit rate : 9 135 kb/s Encoded date : UTC 2022-12-02 03:44:23 Writing application : mkvmerge v50.0.0 ('Awakenings') 64-bit Writing library : libebml v1.4.0 + libmatroska v1.6.2 Cover : Yes Attachments : cover.png Video ID : 1 Format : AVC Format/Info : Advanced Video Codec Format profile : [email protected] Format settings : CABAC / 4 Ref Frames Format settings, CABAC : Yes Format settings, Reference fra : 4 frames Codec ID : V_MPEG4/ISO/AVC Duration : 24 min 34 s Bit rate mode : Constant Bit rate : 8 900 kb/s Nominal bit rate : 10 000 kb/s Width : 1 920 pixels Height : 1 080 pixels Display aspect ratio : 16:9 Frame rate mode : Constant Frame rate : 23.976 (24000/1001) FPS Color space : YUV Chroma subsampling : 4:2:0 Bit depth : 8 bits Scan type : Progressive Bits/(Pixel*Frame) : 0.179 Stream size : 1.53 GiB (97%) Default : Yes Forced : No Color range : Limited Color primaries : BT.709 Transfer characteristics : BT.709 Matrix coefficients : BT.709 Audio ID : 2 Format : E-AC-3 Format/Info : Enhanced AC-3 Commercial name : Dolby Digital Plus Codec ID : A_EAC3 Duration : 24 min 35 s Bit rate mode : Constant Bit rate : 224 kb/s Channel(s) : 2 channels Channel layout : L R Sampling rate : 48.0 kHz Frame rate : 31.250 FPS (1536 SPF) Compression mode : Lossy Stream size : 39.4 MiB (2%) Language : Japanese Service kind : Complete Main Default : Yes Forced : No
前天 10:11 特摄连载
HD 1080p from Youtube official channel. English and Chinese subtitles added. General Unique ID : 139539899462523733291796096657183047936 (0x68FA683678A6476753802C362C118100) Complete name : [MagicStar] Ultraman Decker EP20 [WEBDL] [1080p] [YOUTUBE].mkv Format : Matroska Format version : Version 4 File size : 690 MiB Duration : 30 min 37 s Overall bit rate mode : Variable Overall bit rate : 3 152 kb/s Encoded date : UTC 2022-12-03 01:15:25 Writing application : mkvmerge v50.0.0 ('Awakenings') 64-bit Writing library : libebml v1.4.0 + libmatroska v1.6.2 Video ID : 1 Format : AVC Format/Info : Advanced Video Codec Format profile : [email protected] Format settings : CABAC / 3 Ref Frames Format settings, CABAC : Yes Format settings, Reference fra : 3 frames Codec ID : V_MPEG4/ISO/AVC Duration : 30 min 37 s Bit rate mode : Variable Bit rate : 3 021 kb/s Maximum bit rate : 40.0 Mb/s Width : 1 920 pixels Height : 1 080 pixels Display aspect ratio : 16:9 Frame rate mode : Constant Frame rate : 23.976 (24000/1001) FPS Color space : YUV Chroma subsampling : 4:2:0 Bit depth : 8 bits Scan type : Progressive Bits/(Pixel*Frame) : 0.061 Stream size : 662 MiB (96%) Default : Yes Forced : No Color range : Limited Color primaries : BT.709 Transfer characteristics : BT.709 Matrix coefficients : BT.709 Audio ID : 2 Format : AAC LC Format/Info : Advanced Audio Codec Low Complexity Codec ID : A_AAC-2 Duration : 30 min 37 s Bit rate : 128 kb/s Channel(s) : 2 channels Channel layout : L R Sampling rate : 44.1 kHz Frame rate : 43.066 FPS (1024 SPF) Compression mode : Lossy Stream size : 28.0 MiB (4%) Language : Japanese Default : Yes Forced : No
前天 10:11 特摄连载
HD 1080p from TVer. General Unique ID : 124597841044534513061952240882609845751 (0x5DBCABDACCB2D50447C93F1F940475F7) Complete name : [MagicStar] Ultraman Decker EP20 [WEBDL] [1080p].mkv Format : Matroska Format version : Version 4 File size : 487 MiB Duration : 24 min 41 s Overall bit rate mode : Variable Overall bit rate : 2 761 kb/s Writing application : Lavf57.48.101 Writing library : Lavf57.48.101 Video ID : 1 Format : AVC Format/Info : Advanced Video Codec Format profile : [email protected] Format settings : CABAC / 4 Ref Frames Format settings, CABAC : Yes Format settings, Reference fra : 4 frames Codec ID : V_MPEG4/ISO/AVC Duration : 24 min 40 s Bit rate mode : Variable Maximum bit rate : 4 045 kb/s Width : 1 920 pixels Height : 1 080 pixels Display aspect ratio : 16:9 Frame rate mode : Constant Frame rate : 29.970 (30000/1001) FPS Color space : YUV Chroma subsampling : 4:2:0 Bit depth : 8 bits Scan type : Progressive Default : No Forced : No Color range : Limited Color primaries : BT.709 Transfer characteristics : BT.709 Matrix coefficients : BT.709 VARIANT_BITRATE : 3170200 Audio ID : 2 Format : AAC LC Format/Info : Advanced Audio Codec Low Complexity Codec ID : A_AAC-2 Duration : 24 min 41 s Channel(s) : 2 channels Channel layout : L R Sampling rate : 48.0 kHz Frame rate : 46.875 FPS (1024 SPF) Compression mode : Lossy Delay relative to video : -67 ms Language : English Default : Yes Forced : No Comment : en (Main) VARIANT_BITRATE : 334400
前天 10:11 特摄连载
HD 1080p from Prime Video. Use CBR bitrate mode. We are planning to upload all prime video japan Dramas and Movies, we need your Support! Support Us Ali (Zhifubao / QR code): https://i.ibb.co/FWV2ggm/1660626347125.png PayPalMe: https://www.paypal.com/paypalme/sakuragikenji General Unique ID : 53606149869517919226728610879209558210 (0x28542B3E956D3CAB834FBBA0DE6D50C2) Complete name : Ultraman.Decker.EP18.1080p.AMZN.WEB-DL.DDP2.0.H.264-MagicStar.mkv Format : Matroska Format version : Version 4 File size : 1.63 GiB Duration : 24 min 34 s Overall bit rate mode : Constant Overall bit rate : 9 478 kb/s Encoded date : UTC 2022-11-28 00:06:30 Writing application : mkvmerge v50.0.0 ('Awakenings') 64-bit Writing library : libebml v1.4.0 + libmatroska v1.6.2 Cover : Yes Attachments : cover.png Video ID : 1 Format : AVC Format/Info : Advanced Video Codec Format profile : [email protected] Format settings : CABAC / 4 Ref Frames Format settings, CABAC : Yes Format settings, Reference fra : 4 frames Codec ID : V_MPEG4/ISO/AVC Duration : 24 min 34 s Bit rate mode : Constant Bit rate : 9 237 kb/s Nominal bit rate : 10 000 kb/s Width : 1 920 pixels Height : 1 080 pixels Display aspect ratio : 16:9 Frame rate mode : Constant Frame rate : 23.976 (24000/1001) FPS Color space : YUV Chroma subsampling : 4:2:0 Bit depth : 8 bits Scan type : Progressive Bits/(Pixel*Frame) : 0.186 Stream size : 1.59 GiB (97%) Default : Yes Forced : No Color range : Limited Color primaries : BT.709 Transfer characteristics : BT.709 Matrix coefficients : BT.709 Audio ID : 2 Format : E-AC-3 Format/Info : Enhanced AC-3 Commercial name : Dolby Digital Plus Codec ID : A_EAC3 Duration : 24 min 34 s Bit rate mode : Constant Bit rate : 224 kb/s Channel(s) : 2 channels Channel layout : L R Sampling rate : 48.0 kHz Frame rate : 31.250 FPS (1536 SPF) Compression mode : Lossy Stream size : 39.4 MiB (2%) Language : Japanese Service kind : Complete Main Default : Yes Forced : No
11/29 07:07 特摄连载
HD 1080p from Youtube official channel. English and Chinese subtitles added. General Unique ID : 306847207744296402908267814741441673774 (0xE6D89F610D213C646130B968172E7A2E) Complete name : [MagicStar] Ultraman Decker EP19 [WEBDL] [1080p] [YOUTUBE].mkv Format : Matroska Format version : Version 4 File size : 512 MiB Duration : 29 min 56 s Overall bit rate mode : Variable Overall bit rate : 2 389 kb/s Encoded date : UTC 2022-11-28 10:13:45 Writing application : mkvmerge v50.0.0 ('Awakenings') 64-bit Writing library : libebml v1.4.0 + libmatroska v1.6.2 Video ID : 1 Format : AVC Format/Info : Advanced Video Codec Format profile : [email protected] Format settings : CABAC / 3 Ref Frames Format settings, CABAC : Yes Format settings, Reference fra : 3 frames Codec ID : V_MPEG4/ISO/AVC Duration : 29 min 56 s Bit rate mode : Variable Bit rate : 2 259 kb/s Maximum bit rate : 40.0 Mb/s Width : 1 920 pixels Height : 1 080 pixels Display aspect ratio : 16:9 Frame rate mode : Constant Frame rate : 23.976 (24000/1001) FPS Color space : YUV Chroma subsampling : 4:2:0 Bit depth : 8 bits Scan type : Progressive Bits/(Pixel*Frame) : 0.045 Stream size : 484 MiB (95%) Default : Yes Forced : No Color range : Limited Color primaries : BT.709 Transfer characteristics : BT.709 Matrix coefficients : BT.709 Audio ID : 2 Format : AAC LC Format/Info : Advanced Audio Codec Low Complexity Codec ID : A_AAC-2 Duration : 29 min 56 s Bit rate : 128 kb/s Channel(s) : 2 channels Channel layout : L R Sampling rate : 44.1 kHz Frame rate : 43.066 FPS (1024 SPF) Compression mode : Lossy Stream size : 27.4 MiB (5%) Language : Japanese Default : Yes Forced : No
11/29 07:07 特摄连载
HD 1080p from TVer. General Unique ID : 299866145939629348367484542495208741684 (0xE1981E754C123267DE8EF9D2705B9B34) Complete name : [MagicStar] Ultraman Decker EP19 [WEBDL] [1080p].mkv Format : Matroska Format version : Version 4 File size : 487 MiB Duration : 24 min 41 s Overall bit rate mode : Variable Overall bit rate : 2 759 kb/s Writing application : Lavf57.48.101 Writing library : Lavf57.48.101 Video ID : 1 Format : AVC Format/Info : Advanced Video Codec Format profile : [email protected] Format settings : CABAC / 4 Ref Frames Format settings, CABAC : Yes Format settings, Reference fra : 4 frames Codec ID : V_MPEG4/ISO/AVC Duration : 24 min 40 s Bit rate mode : Variable Maximum bit rate : 4 045 kb/s Width : 1 920 pixels Height : 1 080 pixels Display aspect ratio : 16:9 Frame rate mode : Constant Frame rate : 29.970 (30000/1001) FPS Color space : YUV Chroma subsampling : 4:2:0 Bit depth : 8 bits Scan type : Progressive Default : No Forced : No Color range : Limited Color primaries : BT.709 Transfer characteristics : BT.709 Matrix coefficients : BT.709 VARIANT_BITRATE : 3168000 Audio ID : 2 Format : AAC LC Format/Info : Advanced Audio Codec Low Complexity Codec ID : A_AAC-2 Duration : 24 min 41 s Channel(s) : 2 channels Channel layout : L R Sampling rate : 48.0 kHz Frame rate : 46.875 FPS (1024 SPF) Compression mode : Lossy Delay relative to video : -67 ms Language : English Default : Yes Forced : No Comment : en (Main) VARIANT_BITRATE : 334400
11/29 07:07 特摄连载
thumbs:https://fy-raws.imgbb.com/ 一些必要的说明(随时添加): 1、神州大地,已无净土,请多保重!The Great Land of China, There is no pure land, Please take care of yourself! 2、都2020年了,我在想该改变什么了。如今x264太成熟了,都熟透了,都没有什么改进的地方了,想着是不是该玩玩x265了?由于只做了去色带的滤镜,还算是裸压,在保证去色带滤镜压制完的成果能够最大限度地保留,自己参考了下最新的x265的官方手册以及其他压制组的经验,调教完成了属于“肥羊-Raws”的x265v0.1参数。当然并不是说x264就不压了,只是目前先以“肥羊-Raws网站”的“计划制作的动漫名单”中“橙黄色”字的动漫将使用x265来压制。目前只有2部动漫会压制x265,一是《爱书的下克上:为了成为图书管理员不择手段!》;二是《海盗战记》。网址:https://fy-raws.org/resource_lists/2019-japanese-anime/ 3、以2020年为基准,2020前也就是2019年甚至更早以前播放的番剧用x264来压制,从2020年播放的番剧才开始用x265来压制。当然排除两部x265实验品:《爱书的下克上 第1季》和《海盗战记》,看来x265现在已经相当成熟了,可以大胆使用了。 一些常见问题之回答: I am ten years old.2010-05-15~2020-05-15 If you have any questions, please email me and I will try to answer them. If you not from china, send to:[email protected] If you from china, send to:[email protected] twitter:https://twitter.com/fyraws Language:Simplified Chinese, Traditional Chinese, English, Japanese, Korean 1、10周年是什么? 答:2010年5月15日,是肥羊的诞辰。今年已经2020年了嘛,所以已经10岁了。计划自己给自己一份礼物(详细见图),目前就一个人还坚持了10年也不容易啊! 2、压缩包密码是什么? 答:付出了喜悦@fy-raws.org(格式为:账号ID+at符号+网站网址),目前已知的解压软件只有WINRAR支持汉字密码,请使用WINRAR解压! 3、肥羊压制有什么特点? 答:除非特殊要求,否则一律x264编码+8bit,方便任何设备播放并且绝对兼容硬解。算裸压,但有朋友反映一话的mkv文件太大,所以现在压的视频均考虑到容量问题。不考虑MP4封装,因为章节文件能兼容“简体中文、英文、日文、韩文”,MP4并不支持,并且就算苹果系统,也已经有支持MKV的播放,再去下载第三方APP即可。 4、质量好吗? 答:从来没“王婆卖瓜自卖自夸”过,请你别信任何社区有人对你说“肥羊压制的非常好”之类的话,反之也请你别去信有人说“肥羊压制的非常差”之类的话。这个问题本身就非常主观,喜欢的依然喜欢,讨厌的依然讨厌,你去问一个讨厌的人自然人家就说差,反之喜欢的会告诉你推荐你收。所以,说这么多,六个字总结:问这有意义吗? 5、发片有时间吗? 答:既是动漫爱好者也是一名上班族,目前只有我一人撑着,因为喜欢动漫所以我想应该能坚持下去。由于平常上班,所以玩不了PT,我知道很多片源都是通过PT发布的。有片源就压,下班有时间就编写AVS脚本开压,然后传完百度盘腾讯盘后就发布种子。所以并没有固定时间。 6、有海外联系方式吗? 答:当然有,一个是邮箱。另一个是推特 【国内邮箱:[email protected] | 国外邮箱:[email protected]】请不要用如网易新浪腾讯等国内邮箱往国外邮箱发信息,反之也不要用国外邮箱往国内邮箱发信息,一经发现一律不回! 其次是推特twitter,想了想还是重新注册了个号来对外,我有个主号的。地址:https://twitter.com/fyraws。欢迎关注。 最后是特殊要求,有一些事情需要咨询或请求的,也依照邮箱地址按国内国外划分。假如你是非大陆人,请一律发邮件至国外邮箱,邮件中如果你想指定无论什么社交APP交流都可以,并且语言支持:简体中文、正體中文、English、日本語、한국어。(嗯没错,日语韩语都看得懂)
11/28 07:16 AnimeRaw
thumbs:https://fy-raws.imgbb.com/ 一些必要的说明(随时添加): 1、神州大地,已无净土,请多保重!The Great Land of China, There is no pure land, Please take care of yourself! 2、都2020年了,我在想该改变什么了。如今x264太成熟了,都熟透了,都没有什么改进的地方了,想着是不是该玩玩x265了?由于只做了去色带的滤镜,还算是裸压,在保证去色带滤镜压制完的成果能够最大限度地保留,自己参考了下最新的x265的官方手册以及其他压制组的经验,调教完成了属于“肥羊-Raws”的x265v0.1参数。当然并不是说x264就不压了,只是目前先以“肥羊-Raws网站”的“计划制作的动漫名单”中“橙黄色”字的动漫将使用x265来压制。目前只有2部动漫会压制x265,一是《爱书的下克上:为了成为图书管理员不择手段!》;二是《海盗战记》。网址:https://fy-raws.org/resource_lists/2019-japanese-anime/ 3、以2020年为基准,2020前也就是2019年甚至更早以前播放的番剧用x264来压制,从2020年播放的番剧才开始用x265来压制。当然排除两部x265实验品:《爱书的下克上 第1季》和《海盗战记》,看来x265现在已经相当成熟了,可以大胆使用了。 一些常见问题之回答: I am ten years old.2010-05-15~2020-05-15 If you have any questions, please email me and I will try to answer them. If you not from china, send to:[email protected] If you from china, send to:[email protected] twitter:https://twitter.com/fyraws Language:Simplified Chinese, Traditional Chinese, English, Japanese, Korean 1、10周年是什么? 答:2010年5月15日,是肥羊的诞辰。今年已经2020年了嘛,所以已经10岁了。计划自己给自己一份礼物(详细见图),目前就一个人还坚持了10年也不容易啊! 2、压缩包密码是什么? 答:付出了喜悦@fy-raws.org(格式为:账号ID+at符号+网站网址),目前已知的解压软件只有WINRAR支持汉字密码,请使用WINRAR解压! 3、肥羊压制有什么特点? 答:除非特殊要求,否则一律x264编码+8bit,方便任何设备播放并且绝对兼容硬解。算裸压,但有朋友反映一话的mkv文件太大,所以现在压的视频均考虑到容量问题。不考虑MP4封装,因为章节文件能兼容“简体中文、英文、日文、韩文”,MP4并不支持,并且就算苹果系统,也已经有支持MKV的播放,再去下载第三方APP即可。 4、质量好吗? 答:从来没“王婆卖瓜自卖自夸”过,请你别信任何社区有人对你说“肥羊压制的非常好”之类的话,反之也请你别去信有人说“肥羊压制的非常差”之类的话。这个问题本身就非常主观,喜欢的依然喜欢,讨厌的依然讨厌,你去问一个讨厌的人自然人家就说差,反之喜欢的会告诉你推荐你收。所以,说这么多,六个字总结:问这有意义吗? 5、发片有时间吗? 答:既是动漫爱好者也是一名上班族,目前只有我一人撑着,因为喜欢动漫所以我想应该能坚持下去。由于平常上班,所以玩不了PT,我知道很多片源都是通过PT发布的。有片源就压,下班有时间就编写AVS脚本开压,然后传完百度盘腾讯盘后就发布种子。所以并没有固定时间。 6、有海外联系方式吗? 答:当然有,一个是邮箱。另一个是推特 【国内邮箱:[email protected] | 国外邮箱:[email protected]】请不要用如网易新浪腾讯等国内邮箱往国外邮箱发信息,反之也不要用国外邮箱往国内邮箱发信息,一经发现一律不回! 其次是推特twitter,想了想还是重新注册了个号来对外,我有个主号的。地址:https://twitter.com/fyraws。欢迎关注。 最后是特殊要求,有一些事情需要咨询或请求的,也依照邮箱地址按国内国外划分。假如你是非大陆人,请一律发邮件至国外邮箱,邮件中如果你想指定无论什么社交APP交流都可以,并且语言支持:简体中文、正體中文、English、日本語、한국어。(嗯没错,日语韩语都看得懂)
11/28 07:14 AnimeRaw
thumbs:https://fy-raws.imgbb.com/ 一些必要的说明(随时添加): 1、神州大地,已无净土,请多保重!The Great Land of China, There is no pure land, Please take care of yourself! 2、都2020年了,我在想该改变什么了。如今x264太成熟了,都熟透了,都没有什么改进的地方了,想着是不是该玩玩x265了?由于只做了去色带的滤镜,还算是裸压,在保证去色带滤镜压制完的成果能够最大限度地保留,自己参考了下最新的x265的官方手册以及其他压制组的经验,调教完成了属于“肥羊-Raws”的x265v0.1参数。当然并不是说x264就不压了,只是目前先以“肥羊-Raws网站”的“计划制作的动漫名单”中“橙黄色”字的动漫将使用x265来压制。目前只有2部动漫会压制x265,一是《爱书的下克上:为了成为图书管理员不择手段!》;二是《海盗战记》。网址:https://fy-raws.org/resource_lists/2019-japanese-anime/ 3、以2020年为基准,2020前也就是2019年甚至更早以前播放的番剧用x264来压制,从2020年播放的番剧才开始用x265来压制。当然排除两部x265实验品:《爱书的下克上 第1季》和《海盗战记》,看来x265现在已经相当成熟了,可以大胆使用了。 一些常见问题之回答: I am ten years old.2010-05-15~2020-05-15 If you have any questions, please email me and I will try to answer them. If you not from china, send to:[email protected] If you from china, send to:[email protected] twitter:https://twitter.com/fyraws Language:Simplified Chinese, Traditional Chinese, English, Japanese, Korean 1、10周年是什么? 答:2010年5月15日,是肥羊的诞辰。今年已经2020年了嘛,所以已经10岁了。计划自己给自己一份礼物(详细见图),目前就一个人还坚持了10年也不容易啊! 2、压缩包密码是什么? 答:付出了喜悦@fy-raws.org(格式为:账号ID+at符号+网站网址),目前已知的解压软件只有WINRAR支持汉字密码,请使用WINRAR解压! 3、肥羊压制有什么特点? 答:除非特殊要求,否则一律x264编码+8bit,方便任何设备播放并且绝对兼容硬解。算裸压,但有朋友反映一话的mkv文件太大,所以现在压的视频均考虑到容量问题。不考虑MP4封装,因为章节文件能兼容“简体中文、英文、日文、韩文”,MP4并不支持,并且就算苹果系统,也已经有支持MKV的播放,再去下载第三方APP即可。 4、质量好吗? 答:从来没“王婆卖瓜自卖自夸”过,请你别信任何社区有人对你说“肥羊压制的非常好”之类的话,反之也请你别去信有人说“肥羊压制的非常差”之类的话。这个问题本身就非常主观,喜欢的依然喜欢,讨厌的依然讨厌,你去问一个讨厌的人自然人家就说差,反之喜欢的会告诉你推荐你收。所以,说这么多,六个字总结:问这有意义吗? 5、发片有时间吗? 答:既是动漫爱好者也是一名上班族,目前只有我一人撑着,因为喜欢动漫所以我想应该能坚持下去。由于平常上班,所以玩不了PT,我知道很多片源都是通过PT发布的。有片源就压,下班有时间就编写AVS脚本开压,然后传完百度盘腾讯盘后就发布种子。所以并没有固定时间。 6、有海外联系方式吗? 答:当然有,一个是邮箱。另一个是推特 【国内邮箱:[email protected] | 国外邮箱:[email protected]】请不要用如网易新浪腾讯等国内邮箱往国外邮箱发信息,反之也不要用国外邮箱往国内邮箱发信息,一经发现一律不回! 其次是推特twitter,想了想还是重新注册了个号来对外,我有个主号的。地址:https://twitter.com/fyraws。欢迎关注。 最后是特殊要求,有一些事情需要咨询或请求的,也依照邮箱地址按国内国外划分。假如你是非大陆人,请一律发邮件至国外邮箱,邮件中如果你想指定无论什么社交APP交流都可以,并且语言支持:简体中文、正體中文、English、日本語、한국어。(嗯没错,日语韩语都看得懂)
11/28 07:14 AnimeRaw
HD 1080p from FOD. Japanese subtitles added. General Unique ID : 159413558177409437148870266308587975641 (0x77EDEF3CEEEF40914E9761A6B55073D9) Complete name : Saikou.no.Obahan.Nakajima.Haruko.S02EP09.1080p.FOD.WEB-DL.AAC2.0.H.264-MagicStar.mkv Format : Matroska Format version : Version 4 File size : 1.57 GiB Duration : 44 min 5 s Overall bit rate mode : Variable Overall bit rate : 5 109 kb/s Encoded date : UTC 2022-12-03 21:11:34 Writing application : mkvmerge v50.0.0 ('Awakenings') 64-bit Writing library : libebml v1.4.0 + libmatroska v1.6.2 Video ID : 1 Format : AVC Format/Info : Advanced Video Codec Format profile : [email protected] Format settings : CABAC / 2 Ref Frames Format settings, CABAC : Yes Format settings, Reference fra : 2 frames Codec ID : V_MPEG4/ISO/AVC Duration : 44 min 5 s Bit rate mode : Variable Bit rate : 4 914 kb/s Maximum bit rate : 15.0 Mb/s Width : 1 920 pixels Height : 1 080 pixels Display aspect ratio : 16:9 Frame rate mode : Constant Frame rate : 29.970 (29970/1000) FPS Original frame rate : 29.970 (30000/1001) FPS Color space : YUV Chroma subsampling : 4:2:0 Bit depth : 8 bits Scan type : Progressive Bits/(Pixel*Frame) : 0.079 Stream size : 1.51 GiB (96%) Default : Yes Forced : No Color range : Limited Color primaries : BT.709 Transfer characteristics : BT.709 Matrix coefficients : BT.709 Audio ID : 2 Format : AAC LC Format/Info : Advanced Audio Codec Low Complexity Codec ID : A_AAC-2 Duration : 44 min 5 s Bit rate : 192 kb/s Channel(s) : 2 channels Channel layout : L R Sampling rate : 48.0 kHz Frame rate : 46.875 FPS (1024 SPF) Compression mode : Lossy Stream size : 60.5 MiB (4%) Language : Japanese Default : Yes Forced : No
昨天 22:12 日剧更新了
HD 1080p from official website. No watermark version. Japanese subtitles added. General Unique ID : 19274443490787779592957703023084038377 (0xE801F6F09508D742D6220BD965DE8E9) Complete name : [MagicStar] Japanese Style EP06 [WEBDL] [1080p].mkv Format : Matroska Format version : Version 4 File size : 714 MiB Duration : 23 min 47 s Overall bit rate : 4 194 kb/s Writing application : Lavf57.48.101 Writing library : Lavf57.48.101 Video ID : 1 Format : AVC Format/Info : Advanced Video Codec Format profile : [email protected] Format settings : CABAC / 4 Ref Frames Format settings, CABAC : Yes Format settings, Reference fra : 4 frames Codec ID : V_MPEG4/ISO/AVC Duration : 23 min 47 s Nominal bit rate : 4 000 kb/s Width : 1 920 pixels Height : 1 080 pixels Display aspect ratio : 16:9 Frame rate mode : Constant Frame rate : 29.970 (30000/1001) FPS Color space : YUV Chroma subsampling : 4:2:0 Bit depth : 8 bits Scan type : Progressive Bits/(Pixel*Frame) : 0.064 Writing library : x264 core 148 r265 3b70645 Encoding settings : cabac=1 / ref=2 / deblock=1:0:0 / analyse=0x1:0x111 / me=hex / subme=7 / psy=1 / psy_rd=1.00:0.00 / mixed_ref=1 / me_range=16 / chroma_me=1 / trellis=1 / 8x8dct=0 / cqm=0 / deadzone=21,11 / fast_pskip=1 / chroma_qp_offset=-2 / threads=9 / lookahead_threads=1 / sliced_threads=0 / nr=0 / decimate=1 / interlaced=0 / bluray_compat=0 / constrained_intra=0 / bframes=3 / b_pyramid=2 / b_adapt=1 / b_bias=0 / direct=1 / weightb=1 / open_gop=0 / weightp=2 / keyint=1000 / keyint_min=501 / scenecut=0 / intra_refresh=0 / rc_lookahead=40 / rc=2pass / mbtree=1 / bitrate=4000 / ratetol=1.0 / qcomp=0.60 / qpmin=0 / qpmax=69 / qpstep=4 / cplxblur=20.0 / qblur=0.5 / ip_ratio=1.40 / aq=1:1.00 Default : Yes Forced : No Audio ID : 2 Format : AAC LC Format/Info : Advanced Audio Codec Low Complexity Codec ID : A_AAC-2 Duration : 23 min 47 s Channel(s) : 2 channels Channel layout : L R Sampling rate : 44.1 kHz Frame rate : 43.066 FPS (1024 SPF) Compression mode : Lossy Delay relative to video : -23 ms Default : Yes Forced : No
昨天 22:11 日剧更新了
HD 1080p from Prime Video. Use CBR bitrate mode. Japanese subtitles added. We are planning to upload all prime video japan Dramas and Movies, we need your Support! Support Us Ali (Zhifubao / QR code): https://i.ibb.co/FWV2ggm/1660626347125.png PayPalMe: https://www.paypal.com/paypalme/sakuragikenji General Unique ID : 167062342414894514436268744620140529818 (0x7DAF096AA6F019E50A1E8635E456089A) Complete name : Anata.no.Ban.Desu.The.Movie.2021.1080p.AMZN.WEB-DL.DDP5.1.H.264-MagicStar.mkv Format : Matroska Format version : Version 4 File size : 8.40 GiB Duration : 2 h 22 min Overall bit rate mode : Constant Overall bit rate : 8 459 kb/s Encoded date : UTC 2022-12-03 14:10:35 Writing application : mkvmerge v50.0.0 ('Awakenings') 64-bit Writing library : libebml v1.4.0 + libmatroska v1.6.2 Cover : Yes Attachments : cover.png Video ID : 1 Format : AVC Format/Info : Advanced Video Codec Format profile : [email protected] Format settings : CABAC / 4 Ref Frames Format settings, CABAC : Yes Format settings, Reference fra : 4 frames Codec ID : V_MPEG4/ISO/AVC Duration : 2 h 22 min Bit rate mode : Constant Bit rate : 7 816 kb/s Nominal bit rate : 10 000 kb/s Width : 1 920 pixels Height : 800 pixels Display aspect ratio : 2.40:1 Frame rate mode : Constant Frame rate : 23.976 (24000/1001) FPS Color space : YUV Chroma subsampling : 4:2:0 Bit depth : 8 bits Scan type : Progressive Bits/(Pixel*Frame) : 0.212 Stream size : 7.76 GiB (92%) Default : Yes Forced : No Color range : Limited Color primaries : BT.709 Transfer characteristics : BT.709 Matrix coefficients : BT.709 Audio ID : 2 Format : E-AC-3 Format/Info : Enhanced AC-3 Commercial name : Dolby Digital Plus Codec ID : A_EAC3 Duration : 2 h 22 min Bit rate mode : Constant Bit rate : 640 kb/s Channel(s) : 6 channels Channel layout : L R C LFE Ls Rs Sampling rate : 48.0 kHz Frame rate : 31.250 FPS (1536 SPF) Compression mode : Lossy Stream size : 651 MiB (8%) Language : Japanese Service kind : Complete Main Default : Yes Forced : No
昨天 22:11 日剧更新了
HD 1080p from Prime Video. Use CBR bitrate mode. Japanese subtitles added. We are planning to upload all prime video japan Dramas and Movies, we need your Support! Support Us Ali (Zhifubao / QR code): https://i.ibb.co/FWV2ggm/1660626347125.png PayPalMe: https://www.paypal.com/paypalme/sakuragikenji General Unique ID : 107694446447998850880119723307755262811 (0x510532283226ECCA4F81F3E5A316535B) Complete name : Kinou.Nani.Tabeta.The.Movie.2021.1080p.AMZN.WEB-DL.DDP2.0.H.264-MagicStar.mkv Format : Matroska Format version : Version 4 File size : 8.28 GiB Duration : 1 h 59 min Overall bit rate mode : Constant Overall bit rate : 9 911 kb/s Encoded date : UTC 2022-12-03 14:18:06 Writing application : mkvmerge v50.0.0 ('Awakenings') 64-bit Writing library : libebml v1.4.0 + libmatroska v1.6.2 Cover : Yes Attachments : cover.png Video ID : 1 Format : AVC Format/Info : Advanced Video Codec Format profile : [email protected] Format settings : CABAC / 4 Ref Frames Format settings, CABAC : Yes Format settings, Reference fra : 4 frames Codec ID : V_MPEG4/ISO/AVC Duration : 1 h 59 min Bit rate mode : Constant Bit rate : 10 000 kb/s Width : 1 920 pixels Height : 1 040 pixels Display aspect ratio : 1.85:1 Frame rate mode : Constant Frame rate : 23.976 (24000/1001) FPS Color space : YUV Chroma subsampling : 4:2:0 Bit depth : 8 bits Scan type : Progressive Bits/(Pixel*Frame) : 0.209 Stream size : 8.09 GiB (98%) Default : Yes Forced : No Color range : Limited Color primaries : BT.709 Transfer characteristics : BT.709 Matrix coefficients : BT.709 Audio ID : 2 Format : E-AC-3 Format/Info : Enhanced AC-3 Commercial name : Dolby Digital Plus Codec ID : A_EAC3 Duration : 1 h 59 min Bit rate mode : Constant Bit rate : 224 kb/s Channel(s) : 2 channels Channel layout : L R Sampling rate : 48.0 kHz Frame rate : 31.250 FPS (1536 SPF) Compression mode : Lossy Stream size : 192 MiB (2%) Language : Japanese Service kind : Complete Main Default : Yes Forced : No
昨天 22:11 日剧更新了
HD 1080p from Prime Video. Use CBR bitrate mode. We are planning to upload all prime video japan Dramas and Movies, we need your Support! Support Us Ali (Zhifubao / QR code): https://i.ibb.co/FWV2ggm/1660626347125.png PayPalMe: https://www.paypal.com/paypalme/sakuragikenji General Unique ID : 4226309512731912224810493981725818865 (0x32DF525913C4564C9E20D44FDDBFFF1) Complete name : Shinsou.wa.Mimi.no.Naka.EP07.1080p.AMZN.WEB-DL.DDP2.0.H.264-MagicStar.mkv Format : Matroska Format version : Version 4 File size : 1.65 GiB Duration : 23 min 44 s Overall bit rate mode : Constant Overall bit rate : 9 921 kb/s Encoded date : UTC 2022-12-03 14:22:23 Writing application : mkvmerge v50.0.0 ('Awakenings') 64-bit Writing library : libebml v1.4.0 + libmatroska v1.6.2 Cover : Yes Attachments : cover.png Video ID : 1 Format : AVC Format/Info : Advanced Video Codec Format profile : [email protected] Format settings : CABAC / 4 Ref Frames Format settings, CABAC : Yes Format settings, Reference fra : 4 frames Codec ID : V_MPEG4/ISO/AVC Duration : 23 min 44 s Bit rate mode : Constant Bit rate : 10 000 kb/s Width : 1 920 pixels Height : 1 080 pixels Display aspect ratio : 16:9 Frame rate mode : Constant Frame rate : 23.976 (24000/1001) FPS Color space : YUV Chroma subsampling : 4:2:0 Bit depth : 8 bits Scan type : Progressive Bits/(Pixel*Frame) : 0.201 Stream size : 1.61 GiB (98%) Default : Yes Forced : No Color range : Limited Color primaries : BT.709 Transfer characteristics : BT.709 Matrix coefficients : BT.709 Audio ID : 2 Format : E-AC-3 Format/Info : Enhanced AC-3 Commercial name : Dolby Digital Plus Codec ID : A_EAC3 Duration : 23 min 44 s Bit rate mode : Constant Bit rate : 224 kb/s Channel(s) : 2 channels Channel layout : L R Sampling rate : 48.0 kHz Frame rate : 31.250 FPS (1536 SPF) Compression mode : Lossy Stream size : 38.1 MiB (2%) Language : Japanese Service kind : Complete Main Default : Yes Forced : No
昨天 22:11 日剧更新了
[美国][剧情/奇幻/冒险][权力的游戏第八季 Game.of.Thrones.S08(全06集)][WEBRip-MKV/2G][中英字幕] ◎译  名 权力的游戏 第八季/Game of Thrones: The Final Season/权游8 ◎片  名 Game of Thrones Season 8 ◎年  代 2019 ◎产  地  美国 ◎类  别 剧情/奇幻/冒险 ◎语  言  英语 ◎官方主页  http://www.hbo.com/game-of-thrones ◎上映日期 2019-04-14(美国) ◎整理链接 http://bbs.homefei.me/read-htm-tid-184747.html ◎IMDb评分 9.5/10 from 1,437,376 users ◎IMDb链接 http://www.imdb.com/title/tt0944947 ◎豆瓣评分 9.8/10 from 8,792 users ◎豆瓣链接  https://movie.douban.com/subject/26584183/ ◎集  数 6 ◎片  长 60分钟(E1-E2) / 80分钟(E3-E6) ◎导  演 米格尔·萨普什尼克 Miguel Sapochnik / 大卫·努特尔 David Nutter / 戴维·贝尼奥夫 David Benioff / D·B·威斯 D.B. Weiss ◎编  剧 戴维·贝尼奥夫 David Benioff / D·B·威斯 D.B. Weiss / 乔治·马丁 George R.R. Martin ◎主  演 艾米莉亚·克拉克 Emilia Clarke 基特·哈灵顿 Kit Harington 彼特·丁拉基 Peter Dinklage 苏菲·特纳 Sophie Turner 麦茜·威廉姆斯 Maisie Williams 琳娜·海蒂 Lena Headey 伊萨克·亨普斯特德-怀特 Isaac Hempstead-Wright 尼古拉·科斯特-瓦尔道 Nikolaj Coster-Waldau 约翰·C·布莱德利 John C. Bradley 阿尔菲·艾伦 Alfie Allen 皮鲁·埃斯贝克 Pilou Asbæk 格温多兰·克里斯蒂 Gwendoline Christie 利亚姆·坎宁安 Liam Cunningham ◎简  介 HBO剧集《权力的游戏》第八季将于2019年4月14日播出,本季共6集。 故事发展至第八季,重返临冬城的琼恩·雪诺(基特·哈灵顿 Kit Harington 饰)在布兰·史塔克(伊萨克·亨普斯特德-怀特 Isaac Hempstead-Wright 饰)口中得知了自己身世的 秘密 ,让他与丹妮莉丝·塔格利安(艾米莉亚·克拉克 Emilia Clarke 饰)的关系蒙上了一层冰霜。 詹姆·兰尼斯特(尼古拉·科斯特-瓦尔道 Nikolaj Coster-Waldau 饰)试图召集河间地驻军北伐异鬼,却发现艾德慕·徒利(托比亚斯·门基斯 Tobias Menzies 饰)已经包围你了奔流城。 攸伦·葛雷乔伊(皮鲁·埃斯贝克 Pilou Asbæ 饰)将黄金团带至君临获取了瑟曦(琳娜·海蒂 Lena Headey 饰)的信任,而实际上,他已经与无面者贾昆·赫加尔(汤姆·拉斯齐哈 Tom Wlaschiha 饰)私下达成了秘密协议。 ◎获奖情况 第5届豆瓣 电影 年度榜单 ( 2018 ) 最值得期待的剧集(提名) 第一集磁力链接: magnet:?xt=urn:btih:cb4b612b6259ff87fc9322b6c71867ba107cc841&xl=2130707465 第二集磁力链接: magnet:?xt=urn:btih:08f53f5768c41bd73d266286fedfacbbe05817a9&xl=2285896713 第三集磁力链接: magnet:?xt=urn:btih:4E27CC34832CE75CDF652C0BA51FFB6B45C66CB2 第四集磁力链接: magnet:?xt=urn:btih:B54F70152F7BE160E9FDBC9105A1EBF25BB93921 第五集磁力链接: magnet:?xt=urn:btih:11732BCFE7553549FBD24C30280FFA427F9F03F9 第六集磁力链接: magnet:?xt=urn:btih:C713C1C992DEB0F5A048BED219C00DC676F353BA
05/20 21:03 飘域家园 (讨论)
[美国][剧情/奇幻/冒险][权力的游戏第八季 Game.of.Thrones.S08(更新05集)][WEBRip-MKV/2G][中英字幕] ◎译  名 权力的游戏 第八季/Game of Thrones: The Final Season/权游8 ◎片  名 Game of Thrones Season 8 ◎年  代 2019 ◎产  地  美国 ◎类  别 剧情/奇幻/冒险 ◎语  言  英语 ◎官方主页  http://www.hbo.com/game-of-thrones ◎上映日期 2019-04-14(美国) ◎整理链接 http://bbs.homefei.me/read-htm-tid-184747.html ◎IMDb评分 9.5/10 from 1,437,376 users ◎IMDb链接 http://www.imdb.com/title/tt0944947 ◎豆瓣评分 9.8/10 from 8,792 users ◎豆瓣链接  https://movie.douban.com/subject/26584183/ ◎集  数 6 ◎片  长 60分钟(E1-E2) / 80分钟(E3-E6) ◎导  演 米格尔·萨普什尼克 Miguel Sapochnik / 大卫·努特尔 David Nutter / 戴维·贝尼奥夫 David Benioff / D·B·威斯 D.B. Weiss ◎编  剧 戴维·贝尼奥夫 David Benioff / D·B·威斯 D.B. Weiss / 乔治·马丁 George R.R. Martin ◎主  演 艾米莉亚·克拉克 Emilia Clarke 基特·哈灵顿 Kit Harington 彼特·丁拉基 Peter Dinklage 苏菲·特纳 Sophie Turner 麦茜·威廉姆斯 Maisie Williams 琳娜·海蒂 Lena Headey 伊萨克·亨普斯特德-怀特 Isaac Hempstead-Wright 尼古拉·科斯特-瓦尔道 Nikolaj Coster-Waldau 约翰·C·布莱德利 John C. Bradley 阿尔菲·艾伦 Alfie Allen 皮鲁·埃斯贝克 Pilou Asbæk 格温多兰·克里斯蒂 Gwendoline Christie 利亚姆·坎宁安 Liam Cunningham ◎简  介 HBO剧集《权力的游戏》第八季将于2019年4月14日播出,本季共6集。 故事发展至第八季,重返临冬城的琼恩·雪诺(基特·哈灵顿 Kit Harington 饰)在布兰·史塔克(伊萨克·亨普斯特德-怀特 Isaac Hempstead-Wright 饰)口中得知了自己身世的 秘密 ,让他与丹妮莉丝·塔格利安(艾米莉亚·克拉克 Emilia Clarke 饰)的关系蒙上了一层冰霜。 詹姆·兰尼斯特(尼古拉·科斯特-瓦尔道 Nikolaj Coster-Waldau 饰)试图召集河间地驻军北伐异鬼,却发现艾德慕·徒利(托比亚斯·门基斯 Tobias Menzies 饰)已经包围你了奔流城。 攸伦·葛雷乔伊(皮鲁·埃斯贝克 Pilou Asbæ 饰)将黄金团带至君临获取了瑟曦(琳娜·海蒂 Lena Headey 饰)的信任,而实际上,他已经与无面者贾昆·赫加尔(汤姆·拉斯齐哈 Tom Wlaschiha 饰)私下达成了秘密协议。 ◎获奖情况 第5届豆瓣 电影 年度榜单 ( 2018 ) 最值得期待的剧集(提名) 第一集磁力链接: magnet:?xt=urn:btih:cb4b612b6259ff87fc9322b6c71867ba107cc841&xl=2130707465 第二集磁力链接: magnet:?xt=urn:btih:08f53f5768c41bd73d266286fedfacbbe05817a9&xl=2285896713 第三集磁力链接: magnet:?xt=urn:btih:4E27CC34832CE75CDF652C0BA51FFB6B45C66CB2 第四集磁力链接: magnet:?xt=urn:btih:B54F70152F7BE160E9FDBC9105A1EBF25BB93921 第五集磁力链接: magnet:?xt=urn:btih:11732BCFE7553549FBD24C30280FFA427F9F03F9
05/13 19:54 飘域家园 (讨论)
[美国][剧情/奇幻/冒险][权力的游戏第八季 Game.of.Thrones.S08(更新04集)][WEBRip-MKV/2G][中英字幕] ◎译  名 权力的游戏 第八季/Game of Thrones: The Final Season/权游8 ◎片  名 Game of Thrones Season 8 ◎年  代 2019 ◎产  地  美国 ◎类  别 剧情/奇幻/冒险 ◎语  言  英语 ◎官方主页  http://www.hbo.com/game-of-thrones ◎上映日期 2019-04-14(美国) ◎整理链接 http://bbs.homefei.me/read-htm-tid-184747.html ◎IMDb评分 9.5/10 from 1,437,376 users ◎IMDb链接 http://www.imdb.com/title/tt0944947 ◎豆瓣评分 9.8/10 from 8,792 users ◎豆瓣链接  https://movie.douban.com/subject/26584183/ ◎集  数 6 ◎片  长 60分钟(E1-E2) / 80分钟(E3-E6) ◎导  演 米格尔·萨普什尼克 Miguel Sapochnik / 大卫·努特尔 David Nutter / 戴维·贝尼奥夫 David Benioff / D·B·威斯 D.B. Weiss ◎编  剧 戴维·贝尼奥夫 David Benioff / D·B·威斯 D.B. Weiss / 乔治·马丁 George R.R. Martin ◎主  演 艾米莉亚·克拉克 Emilia Clarke 基特·哈灵顿 Kit Harington 彼特·丁拉基 Peter Dinklage 苏菲·特纳 Sophie Turner 麦茜·威廉姆斯 Maisie Williams 琳娜·海蒂 Lena Headey 伊萨克·亨普斯特德-怀特 Isaac Hempstead-Wright 尼古拉·科斯特-瓦尔道 Nikolaj Coster-Waldau 约翰·C·布莱德利 John C. Bradley 阿尔菲·艾伦 Alfie Allen 皮鲁·埃斯贝克 Pilou Asbæk 格温多兰·克里斯蒂 Gwendoline Christie 利亚姆·坎宁安 Liam Cunningham ◎简  介 HBO剧集《权力的游戏》第八季将于2019年4月14日播出,本季共6集。 故事发展至第八季,重返临冬城的琼恩·雪诺(基特·哈灵顿 Kit Harington 饰)在布兰·史塔克(伊萨克·亨普斯特德-怀特 Isaac Hempstead-Wright 饰)口中得知了自己身世的 秘密 ,让他与丹妮莉丝·塔格利安(艾米莉亚·克拉克 Emilia Clarke 饰)的关系蒙上了一层冰霜。 詹姆·兰尼斯特(尼古拉·科斯特-瓦尔道 Nikolaj Coster-Waldau 饰)试图召集河间地驻军北伐异鬼,却发现艾德慕·徒利(托比亚斯·门基斯 Tobias Menzies 饰)已经包围你了奔流城。 攸伦·葛雷乔伊(皮鲁·埃斯贝克 Pilou Asbæ 饰)将黄金团带至君临获取了瑟曦(琳娜·海蒂 Lena Headey 饰)的信任,而实际上,他已经与无面者贾昆·赫加尔(汤姆·拉斯齐哈 Tom Wlaschiha 饰)私下达成了秘密协议。 ◎获奖情况 第5届豆瓣 电影 年度榜单 ( 2018 ) 最值得期待的剧集(提名) 第一集磁力链接: magnet:?xt=urn:btih:cb4b612b6259ff87fc9322b6c71867ba107cc841&xl=2130707465 第二集磁力链接: magnet:?xt=urn:btih:08f53f5768c41bd73d266286fedfacbbe05817a9&xl=2285896713 第三集磁力链接: magnet:?xt=urn:btih:4E27CC34832CE75CDF652C0BA51FFB6B45C66CB2 第四集磁力链接: magnet:?xt=urn:btih:B54F70152F7BE160E9FDBC9105A1EBF25BB93921
05/06 19:32 飘域家园 (讨论)
[美国][剧情/奇幻/冒险][权力的游戏第八季 Game.of.Thrones.S08E01-02(更新02集)][WEBRip-MKV/2G][中英字幕] ◎译  名 权力的游戏 第八季/Game of Thrones: The Final Season/权游8 ◎片  名 Game of Thrones Season 8 ◎年  代 2019 ◎产  地  美国 ◎类  别 剧情/奇幻/冒险 ◎语  言  英语 ◎官方主页  http://www.hbo.com/game-of-thrones ◎上映日期 2019-04-14(美国) ◎整理链接 http://bbs.homefei.me/read-htm-tid-184747.html ◎IMDb评分 9.5/10 from 1,437,376 users ◎IMDb链接 http://www.imdb.com/title/tt0944947 ◎豆瓣评分 9.8/10 from 8,792 users ◎豆瓣链接  https://movie.douban.com/subject/26584183/ ◎集  数 6 ◎片  长 60分钟(E1-E2) / 80分钟(E3-E6) ◎导  演 米格尔·萨普什尼克 Miguel Sapochnik / 大卫·努特尔 David Nutter / 戴维·贝尼奥夫 David Benioff / D·B·威斯 D.B. Weiss ◎编  剧 戴维·贝尼奥夫 David Benioff / D·B·威斯 D.B. Weiss / 乔治·马丁 George R.R. Martin ◎主  演 艾米莉亚·克拉克 Emilia Clarke 基特·哈灵顿 Kit Harington 彼特·丁拉基 Peter Dinklage 苏菲·特纳 Sophie Turner 麦茜·威廉姆斯 Maisie Williams 琳娜·海蒂 Lena Headey 伊萨克·亨普斯特德-怀特 Isaac Hempstead-Wright 尼古拉·科斯特-瓦尔道 Nikolaj Coster-Waldau 约翰·C·布莱德利 John C. Bradley 阿尔菲·艾伦 Alfie Allen 皮鲁·埃斯贝克 Pilou Asbæk 格温多兰·克里斯蒂 Gwendoline Christie 利亚姆·坎宁安 Liam Cunningham ◎简  介 HBO剧集《权力的游戏》第八季将于2019年4月14日播出,本季共6集。 故事发展至第八季,重返临冬城的琼恩·雪诺(基特·哈灵顿 Kit Harington 饰)在布兰·史塔克(伊萨克·亨普斯特德-怀特 Isaac Hempstead-Wright 饰)口中得知了自己身世的 秘密 ,让他与丹妮莉丝·塔格利安(艾米莉亚·克拉克 Emilia Clarke 饰)的关系蒙上了一层冰霜。 詹姆·兰尼斯特(尼古拉·科斯特-瓦尔道 Nikolaj Coster-Waldau 饰)试图召集河间地驻军北伐异鬼,却发现艾德慕·徒利(托比亚斯·门基斯 Tobias Menzies 饰)已经包围你了奔流城。 攸伦·葛雷乔伊(皮鲁·埃斯贝克 Pilou Asbæ 饰)将黄金团带至君临获取了瑟曦(琳娜·海蒂 Lena Headey 饰)的信任,而实际上,他已经与无面者贾昆·赫加尔(汤姆·拉斯齐哈 Tom Wlaschiha 饰)私下达成了秘密协议。 ◎获奖情况 第5届豆瓣 电影 年度榜单 ( 2018 ) 最值得期待的剧集(提名) 第一集磁力链接: magnet:?xt=urn:btih:cb4b612b6259ff87fc9322b6c71867ba107cc841&xl=2130707465 第二集磁力链接: magnet:?xt=urn:btih:08f53f5768c41bd73d266286fedfacbbe05817a9&xl=2285896713
04/22 19:15 飘域家园 (讨论) 约1条评论
[美国][剧情/奇幻/冒险][权力的游戏第八季 Game.of.Thrones.S08E01(更新01集)][WEBRip-MKV/2G][中英字幕] ◎译  名 权力的游戏 第八季/Game of Thrones: The Final Season/权游8 ◎片  名 Game of Thrones Season 8 ◎年  代 2019 ◎产  地  美国 ◎类  别 剧情/奇幻/冒险 ◎语  言  英语 ◎官方主页  http://www.hbo.com/game-of-thrones ◎上映日期 2019-04-14(美国) ◎整理链接 http://bbs.homefei.me/read-htm-tid-184747.html ◎IMDb评分 9.5/10 from 1,437,376 users ◎IMDb链接 http://www.imdb.com/title/tt0944947 ◎豆瓣评分 9.8/10 from 8,792 users ◎豆瓣链接  https://movie.douban.com/subject/26584183/ ◎集  数 6 ◎片  长 60分钟(E1-E2) / 80分钟(E3-E6) ◎导  演 米格尔·萨普什尼克 Miguel Sapochnik / 大卫·努特尔 David Nutter / 戴维·贝尼奥夫 David Benioff / D·B·威斯 D.B. Weiss ◎编  剧 戴维·贝尼奥夫 David Benioff / D·B·威斯 D.B. Weiss / 乔治·马丁 George R.R. Martin ◎主  演 艾米莉亚·克拉克 Emilia Clarke 基特·哈灵顿 Kit Harington 彼特·丁拉基 Peter Dinklage 苏菲·特纳 Sophie Turner 麦茜·威廉姆斯 Maisie Williams 琳娜·海蒂 Lena Headey 伊萨克·亨普斯特德-怀特 Isaac Hempstead-Wright 尼古拉·科斯特-瓦尔道 Nikolaj Coster-Waldau 约翰·C·布莱德利 John C. Bradley 阿尔菲·艾伦 Alfie Allen 皮鲁·埃斯贝克 Pilou Asbæk 格温多兰·克里斯蒂 Gwendoline Christie 利亚姆·坎宁安 Liam Cunningham ◎简  介 HBO剧集《权力的游戏》第八季将于2019年4月14日播出,本季共6集。 故事发展至第八季,重返临冬城的琼恩·雪诺(基特·哈灵顿 Kit Harington 饰)在布兰·史塔克(伊萨克·亨普斯特德-怀特 Isaac Hempstead-Wright 饰)口中得知了自己身世的 秘密 ,让他与丹妮莉丝·塔格利安(艾米莉亚·克拉克 Emilia Clarke 饰)的关系蒙上了一层冰霜。 詹姆·兰尼斯特(尼古拉·科斯特-瓦尔道 Nikolaj Coster-Waldau 饰)试图召集河间地驻军北伐异鬼,却发现艾德慕·徒利(托比亚斯·门基斯 Tobias Menzies 饰)已经包围你了奔流城。 攸伦·葛雷乔伊(皮鲁·埃斯贝克 Pilou Asbæ 饰)将黄金团带至君临获取了瑟曦(琳娜·海蒂 Lena Headey 饰)的信任,而实际上,他已经与无面者贾昆·赫加尔(汤姆·拉斯齐哈 Tom Wlaschiha 饰)私下达成了秘密协议。 ◎获奖情况 第5届豆瓣 电影 年度榜单 ( 2018 ) 最值得期待的剧集(提名) 磁力链接: magnet:?xt=urn:btih:cb4b612b6259ff87fc9322b6c71867ba107cc841&xl=2130707465
04/15 20:32 飘域家园 (讨论)
[中国][战争/历史][辛亥革命1911 Revolution 2011][BD-MKV/3G][中英字幕][赵文瑄/孙淳/成龙/姜武/李冰冰] 【中 文 名】 辛亥革命 【外 文 名】 Xin Hai Ge Ming 【译 名】 1911辛亥革命 【出品时间】 2011年 【出品公司】上海东方影视发行有限责任公司 【制片地区】 中国 【制片成本】 $30,000,000/estimated 【拍摄地点】 浙江横店影视城 【导 演】 张黎,成龙 【编 剧】 王兴东,陈宝光 【制 片 人】 汪天云,毕述林,王浙滨 【类 型】 战争/历史 【主 演】 赵文瑄,孙淳,成龙,姜武,黄志忠,李冰冰 【片 长】 120分钟 【上映时间】 2011年9月23日 【语言字幕】 粤语/中英字幕 【海外发行】 北京耀莱国际文化产业有限公司 【整理链接】 http://bbs.homefei.me/read-htm-tid-183593.html 【 剧情 简介】 《辛亥革命》是由张黎和成龙执导,赵文瑄、李冰冰、陈冲、孙淳、房祖名、胡歌、余少群、杜宇航等主演的革命 战争 片。该片讲述了晚清末年,内忧外患,中华民族到了危亡之际。改良派维新变法运动的失败,孙中山为首的革命派,决心以革命推翻清政府,建立共和体制的故事。该片于2011年9月23日在中国内地公映。 晚清末年,内忧外患,中华民族到了危亡之际。改良派维新变法运动的失败,孙中山为首的革命派,决心以革命推翻清政府,建立共和体制。 1895到1910年,革命党人先后发动了多次起义,秋瑾、徐锡麟等一批革命党先驱先后牺牲,革命陷入低潮。 1910年底,孙中山再次在海外召集同盟会骨干,组织力量准备在广州发动起义黄兴与徐宗汉假扮夫妇, 秘密 潜入广州。然而广州之战终因革命党人寡不敌众而告负,林觉民等一大批革命骨干壮烈牺牲,黄兴也身负重伤。徐宗汉等冒死收葬了烈士遗体72具,葬于广州城外的黄花岗。 经过这次的起义,清政府对革命党人进行了血腥镇压,同时积极寻求与帝国主义的卖国交易。 在四川,清廷又一次丧权辱国的行为,引发了轰轰烈烈的保路运动,湖北新军被紧急抽调前去镇压。在武昌,新军当中的革命党名单泄露,湖广总督瑞澂开始对名单上的革命党人逐一捕杀,革命形势十分危急,革命党人熊秉坤、金兆龙等愤然打响了革命第一枪。经过一夜激战,武昌起义的革命军攻占了总督府,黎元洪被革命军将士紧急推为军政府都督。 武昌起义成功,举国震惊,消息传到 美国 ,孙中山和同盟会成员欢欣鼓舞。立即派黄兴和徐宗汉赶到武昌战场,大大振奋了革命军士气。不惜以热血和生命保卫飘扬着革命红旗的武汉三镇。经过这么多血与火的洗礼,黄兴和徐宗汉的感情不断升华,两人决定结为革命夫妻继续比并肩战斗。 风雨飘渺的清廷只好请袁世凯出山,率北洋军镇压革命。袁世凯一方面镇压革命军,另一方面仍试图在各方势力的博弈中,暗地里通过革命党人汪精卫传达与革命党和谈的愿望。 革命的危急关头,孙中山奔赴海外,力排众议,最终说服西方列国财团,不再借贷款支持清廷。 阳夏保卫战打得异常惨烈,黄兴和黎元洪艰难支撑,在各种反动势力的夹击下,黄兴毅然决定率部撤往长江下游,集聚力量,以图大业。 长江战舰在行进中,传来了多省宣布独立的消息,黄兴等备受鼓舞。 自此,革命形势进入了南北对峙的局面,经过多方努力,南北代表唐绍仪和伍廷芳终于坐下来会谈,经过艰难谈判,双方达成共识,支持建立共和政体;经过十八省代表的公开民主选举,孙中山被推选为首任大总统。孙中山表示,只要袁世凯敦促清帝退位,他即可让位,由逼退清让位的人,出任中华民国大总统。 【电影 截图 】 磁力链接: magnet:?xt=urn:btih:eafdf760d5551860f6a6f0af02c20fa51d53a00c&xl=3321889801
03/23 10:57 飘域家园 (讨论)
世界遗产是属于地球和人类的,保护世界遗产业已成为21世纪最大的国际合作。或遭风化或受人为破坏,遗产也许无法永存,而借助数码技术,一旦凝固于影像,便可以高清晰地再现,永久保存。基于这样的初衷,从1996年起,日本TBS电视台便开始拍摄制作《世界遗产》这一大型系列纪录片,每周播放一期,迄今为止已经连续播出超过一千集。 在这20多年里,摄制组多次前往从未有人涉足拍摄过的世界遗产进行拍摄。从南极附近的孤岛,到居住着珍稀野兽的中美洲巴拿马热带雨林,从福冈的神宿之岛,到位于深海海底的火山,他们的足迹已踏遍全球的各个角落。拍摄规格也从最初低清晰度的模拟视频,到后来的高清宽屏数字视频,一直到4K超清影片、VR虚拟现实影片,越来越多的世界遗产被凝固在了影像节目中,成为了人类文化和地球样貌的永久纪录。 在这些高质量的影片背后,也少不了制作人员的艰难困苦。每个小组需要携带数百公斤的拍摄器材,有时免不了要踏入人迹罕至的原始丛林,有时又需要攀爬险峻的山峰,又或是要潜入海底。有些摄制组组成员甚至还遇到过致命危险,曾和死神擦身而过。这些辛勤汗水最终化为一部部精彩的视觉盛宴,为您带来源自各地的世界遗产风光。 ========字幕组长期招募=========== 详细招募说明请看此贴→ subs.kamigami.org/28.html 说明:诸神字幕组以高质量精品字幕为宗旨,要求所有制作成员对作品有认真负责的态度。 安排工作时,时间宽裕、责任心强者优先。 ========================== 字幕组官方微博:@诸神字幕组 诸神字幕组 字幕组B站账号:@诸神字幕组 诸神字幕组 更多双语字幕,请访问诸神字幕组发布站 http://subs.kamigami.org 诸神字幕组是以制作双语字幕为主要活动的 网络组织 ,于2008年2月29日创立。意在通过传播异国文化和利用这一沟通渠道,增进对于异国国度的了解,提高大家对于外国语言的理解能力,同时结交更多志同道合的战友们共同奋斗!
昨天 22:10 五花八门
世界遗产是属于地球和人类的,保护世界遗产业已成为21世纪最大的国际合作。或遭风化或受人为破坏,遗产也许无法永存,而借助数码技术,一旦凝固于影像,便可以高清晰地再现,永久保存。基于这样的初衷,从1996年起,日本TBS电视台便开始拍摄制作《世界遗产》这一大型系列纪录片,每周播放一期,迄今为止已经连续播出超过一千集。 在这20多年里,摄制组多次前往从未有人涉足拍摄过的世界遗产进行拍摄。从南极附近的孤岛,到居住着珍稀野兽的中美洲巴拿马热带雨林,从福冈的神宿之岛,到位于深海海底的火山,他们的足迹已踏遍全球的各个角落。拍摄规格也从最初低清晰度的模拟视频,到后来的高清宽屏数字视频,一直到4K超清影片、VR虚拟现实影片,越来越多的世界遗产被凝固在了影像节目中,成为了人类文化和地球样貌的永久纪录。 在这些高质量的影片背后,也少不了制作人员的艰难困苦。每个小组需要携带数百公斤的拍摄器材,有时免不了要踏入人迹罕至的原始丛林,有时又需要攀爬险峻的山峰,又或是要潜入海底。有些摄制组组成员甚至还遇到过致命危险,曾和死神擦身而过。这些辛勤汗水最终化为一部部精彩的视觉盛宴,为您带来源自各地的世界遗产风光。 ========字幕组长期招募=========== 详细招募说明请看此贴→ subs.kamigami.org/28.html 说明:诸神字幕组以高质量精品字幕为宗旨,要求所有制作成员对作品有认真负责的态度。 安排工作时,时间宽裕、责任心强者优先。 ========================== 字幕组官方微博:@诸神字幕组 诸神字幕组 字幕组B站账号:@诸神字幕组 诸神字幕组 更多双语字幕,请访问诸神字幕组发布站 http://subs.kamigami.org 诸神字幕组是以制作双语字幕为主要活动的 网络组织 ,于2008年2月29日创立。意在通过传播异国文化和利用这一沟通渠道,增进对于异国国度的了解,提高大家对于外国语言的理解能力,同时结交更多志同道合的战友们共同奋斗!
昨天 22:10 五花八门
◎译  名 超能使者 ◎片  名 超能使者 ◎年  代 2022 ◎产  地 中国香港 ◎类  别 动作 / 奇幻 ◎语  言 粤语 ◎上映日期 2022-10-31(中国香港) ◎豆瓣评星 ★★★★☆ ◎豆瓣评分 7.9/10 from 4,312 users ◎豆瓣链接 https://movie.douban.com/subject/35080462/ ◎集  数 25 ◎导  演 文伟鸿 / Jazz Boon ◎演  员 陈展鹏 / Ruco Chan       唐诗咏 / Natalie Tong       陈山聪 / Joel Chan       刘颖镟 / Tiffany Lau       刘佩玥 / Moon Lau Pui Yuet       沈震轩 / Sammy Sum       王君馨 / Grace Wong       林子善 / Chi-Sing Lam       伍乐怡 / Kelly Ng       欧瑞伟 / Jimmy Au Siu Wai       张国强 / Kwok Keung Cheung       黄庭锋 / Telford Wong       吴家乐 / Carlo Ng Ka-Lok | 饰 游国栋       杨卓娜 / Griselda Yeung       陈国峰 / Penny Chan       程可为 / Ho-Wai Ching       甄采浠 / Carisa Yan       鲁振顺 / Chun-shun Lo       叶蒨文 / Sophie Yip | 饰 朱小兵       胡美贻 / Nicole Wu       庄思明 / Lisa Chong | 饰 Tina姐       陈嘉佳 / Ka-Kai Chan | 饰 钱玛丽       陈熙蕊 / Blossom Chan       汤俊明 / Martin Tong Chun Ming       李嘉晋 / Marco Lee       林靖文 / Sophia Lam       郭子豪 / Arnold Kwok       杨证桦 / Man Yeung       张美妮 / Meini Cheung       游莨维 / MasterJoe       董敬文 / Terence Tung       李启杰 / Akai Lee       关曜儁 / Leo Kwan Yiu Chun       黄耀煌 / Terrence Wong       袁镇业 / Kelvin Yuen       林浩文 / Oman Lam       邵卓尧 / Cheuk-Yiu Siu       罗鸿 / Danny Lo       唐嘉麟 / Kevin Tong       冯素波 / So-Po Fung       霍健邦 / Kenneth Fok       范仲恒 / Chung Hang Fan       李家鼎 / Steve Lee       李冈龙 / Eddie Li       炜烈 / Lieh Wei       古天祥 / Carlos Koo       刘家聪 / Ka Chung Lau       梁珈咏 / Mikako Leung       苏恩磁 / Ceci So Yan Chee       黄梓玮 / Jenny Wong       李漫芬 / Fanny Lee       张诗欣 / Yan Cheung       曾琬莎 / Kate Tsang       赵乐贤 / Chiu Lok Yin       秦启维 / Chun Kai Wai       倪嘉雯 / Carmen Ngai Ka Man       施焯日 / Arthur Sy       陈嘉俊 / Vincent       吴瑞庭 / Shui Ting Ng       莫家淦 / Keith Mok       林伟 / Vincent Lam       郑启泰 / Eric Cheng       钟志光 / Chung Chi Kwong       李海生 / Hoi Sang Lee       安德尊 / Anderson Junior       黄颖君 / Burmie Wong       黄浩霆 / Justin Wong       苏丽明 / So Lai Ming       崔锦棠 / Tony Chui       何泳芍 / Honey Ho       罗毓仪 / Yuki Law Yuk Yee       邓美欣 / Venus Tang       邵展鹏 / Terence Siu       黄子桐 / Rachel Wong       樊亦敏 / Yik-Man Fan       彭翔翎 / Pang Janice Cheung Ling       沈爱琳 / Helen Shum       梁皓楷 / Jerry Leung       陈诺忠 / Matthew Chan       许家杰 / Jack Hui       张本立 / Poon Lap Cheung       李善恒 / Jacky Lei       谭坤伦 / Alan Tam       朱斐斐 / Fei Fei Chu       谢可逸 / Tse Ho Yat       陈苑澄 / Tania Chan ◎编  剧 郑忠泰 / Philip Cheng       朱淇祺 / Kiki Chu       马静雯 / Jovy Ma       张应伟 / Ying-Wai Cheung
昨天 22:10 五花八门