旋风动漫BT资源发布索引 | 汇聚动漫BT/ED资源
STORY : 嗨,我是柊宇天娜,一个热爱魔法少女的普通女孩☆ 一天,我遇到了一个看起来像是能赋予我变身力量的吉祥物,结果被施加了奇妙的魔法! 我本以为这样我也能成为魔法少女——但等一下,这是什么装扮? 我怎么变成了邪恶组织的女干部!?接下来我会怎么样呢~~~!!? 原本是魔法少女爱好者、心地善良又内向的少女,竟然变成了残忍的施虐者?!正义与邪恶之间激烈的SM游戏(!?)现在开始了!! STAFF : 原作: 小野中彰大(「魔法少⼥にあこがれて」/竹書房刊) 导演: 鈴木理人・大槻敦史 脚本: 木村暢 分镜: 鈴木理人 演出: 鈴木理人 音乐: 高梨康治・鈴木暁也・ヨハネス・ニルソン 人物设定: 大滝那佳 系列构成: 木村暢 美术监督: 平良亜梨沙 色彩设计: 上村修司 总作画监督: 大滝那佳 作画监督: 大滝那佳、島崎克実、青木真理子、大野勉、樋口香住、森あおい、服部憲知、重松佐和子、山﨑理璃花 摄影监督: 鯨井亮 道具设计: 久保川絵梨子 剪辑: 石井亜美 主题歌编曲: Motokiyo / 烏屋茶房 主题歌作曲: Motokiyo / 烏屋茶房 主题歌作词: Motokiyo / 烏屋茶房 主题歌演出: NACHERRY(村上奈津実、田中ちえ美) / エノルミータ【悪の女幹部(cv.和泉風花)、レオパルト(cv.古賀葵)、ネロアリス(cv.杉浦しおり)】 企画: 菊池剛、工藤大丈;企画协力:宮田純一朗 製作: 魔法少女にあこがれて製作委員会(KADOKAWA、ドコモ・アニメストア、MAGNET、AT-X、旭プロダクション、竹書房、バンダイナムコミュージックライブ);製作协力:笠原周造、新井孝介、福田順、中山卓也、清原誠巳、髙石優子、平山ひとみ、石井一成、相田康久、脇坂真美、倉科俊汰、松田隼典 音响监督: 本山哲 音响: ダックスプロダクション 音效: 櫻井陽子 特效: 旭プロダクション、石橋啓 执行制片人: 田中翔、渡辺隆、岩野貢、佐野圭介、柴田幹雄、後藤明信、黒田学 制片人: 山本修平、松田大洋、君塚耕太、西前朱加、河内山隆、木村淳、臼倉竜太郎 音乐制作: ランティス 动画制作: 旭プロダクション 美术设计: 平良亜梨沙 OP・ED 分镜: 鈴木理人 3DCG: 旭プロダクション 协力: 梅田正勝、増田高大、柴山智歩、黒木智津子、小野寺麻里、本村康祐 (来源于: https://bgm.tv/subject/424663 )
今天 06:03 动画更新员
STORY : 嗨,我是柊宇天娜,一個熱愛魔法少女的普通女孩☆ 一天,我遇到了一個看起來像是能賦予我變身力量的吉祥物,結果被施加了奇妙的魔法! 我本以為這樣我也能成為魔法少女——但等一下,這是什麼裝扮? 我怎麼變成了邪惡組織的女幹部!?接下來我會怎麼樣呢~~~!!? 原本是魔法少女愛好者、心地善良又內向的少女,竟然變成了殘忍的施虐者?!正義與邪惡之間激烈的SM遊戲(!?)現在開始了!! STAFF : 原作: 小野中彰大(「魔法少⼥にあこがれて」/竹書房刊) 導演: 鈴木理人・大槻敦史 腳本: 木村暢 分鏡: 鈴木理人 演出: 鈴木理人 音樂: 高梨康治・鈴木暁也・ヨハネス・ニルソン 人物設定: 大滝那佳 系列構成: 木村暢 美術監督: 平良亜梨沙 色彩設計: 上村修司 總作畫監督: 大滝那佳 作畫監督: 大滝那佳、島崎克実、青木真理子、大野勉、樋口香住、森あおい、服部憲知、重松佐和子、山﨑理璃花 攝影監督: 鯨井亮 道具設計: 久保川絵梨子 剪輯: 石井亜美 主題歌編曲: Motokiyo / 烏屋茶房 主題歌作曲: Motokiyo / 烏屋茶房 主題歌作詞: Motokiyo / 烏屋茶房 主題歌演出: NACHERRY(村上奈津実、田中ちえ美) / エノルミータ【悪の女幹部(cv.和泉風花)、レオパルト(cv.古賀葵)、ネロアリス(cv.杉浦しおり)】 企畫: 菊池剛、工藤大丈;企畫協力:宮田純一朗 製作: 魔法少女にあこがれて製作委員会(KADOKAWA、ドコモ・アニメストア、MAGNET、AT-X、旭プロダクション、竹書房、バンダイナムコミュージックライブ);製作協力:笠原周造、新井孝介、福田順、中山卓也、清原誠巳、髙石優子、平山ひとみ、石井一成、相田康久、脇坂真美、倉科俊汰、松田隼典 音響監督: 本山哲 音響: ダックスプロダクション 音效: 櫻井陽子 特效: 旭プロダクション、石橋啓 執行製片人: 田中翔、渡辺隆、岩野貢、佐野圭介、柴田幹雄、後藤明信、黒田学 製片人: 山本修平、松田大洋、君塚耕太、西前朱加、河內山隆、木村淳、臼倉竜太郎 音樂製作: ランティス 動畫製作: 旭プロダクション 美術設計: 平良亜梨沙 OP・ED 分鏡: 鈴木理人 3DCG: 旭プロダクション 協力: 梅田正勝、増田高大、柴山智歩、黒木智津子、小野寺麻里、本村康祐 (來源於: https://bgm.tv/subject/424663 )
今天 06:02 动画更新员
STORY : 嗨,我是柊宇天娜,一个热爱魔法少女的普通女孩☆ 一天,我遇到了一个看起来像是能赋予我变身力量的吉祥物,结果被施加了奇妙的魔法! 我本以为这样我也能成为魔法少女——但等一下,这是什么装扮? 我怎么变成了邪恶组织的女干部!?接下来我会怎么样呢~~~!!? 原本是魔法少女爱好者、心地善良又内向的少女,竟然变成了残忍的施虐者?!正义与邪恶之间激烈的SM游戏(!?)现在开始了!! STAFF : 原作: 小野中彰大(「魔法少⼥にあこがれて」/竹書房刊) 导演: 鈴木理人・大槻敦史 脚本: 木村暢 分镜: 鈴木理人 演出: 鈴木理人 音乐: 高梨康治・鈴木暁也・ヨハネス・ニルソン 人物设定: 大滝那佳 系列构成: 木村暢 美术监督: 平良亜梨沙 色彩设计: 上村修司 总作画监督: 大滝那佳 作画监督: 大滝那佳、島崎克実、青木真理子、大野勉、樋口香住、森あおい、服部憲知、重松佐和子、山﨑理璃花 摄影监督: 鯨井亮 道具设计: 久保川絵梨子 剪辑: 石井亜美 主题歌编曲: Motokiyo / 烏屋茶房 主题歌作曲: Motokiyo / 烏屋茶房 主题歌作词: Motokiyo / 烏屋茶房 主题歌演出: NACHERRY(村上奈津実、田中ちえ美) / エノルミータ【悪の女幹部(cv.和泉風花)、レオパルト(cv.古賀葵)、ネロアリス(cv.杉浦しおり)】 企画: 菊池剛、工藤大丈;企画协力:宮田純一朗 製作: 魔法少女にあこがれて製作委員会(KADOKAWA、ドコモ・アニメストア、MAGNET、AT-X、旭プロダクション、竹書房、バンダイナムコミュージックライブ);製作协力:笠原周造、新井孝介、福田順、中山卓也、清原誠巳、髙石優子、平山ひとみ、石井一成、相田康久、脇坂真美、倉科俊汰、松田隼典 音响监督: 本山哲 音响: ダックスプロダクション 音效: 櫻井陽子 特效: 旭プロダクション、石橋啓 执行制片人: 田中翔、渡辺隆、岩野貢、佐野圭介、柴田幹雄、後藤明信、黒田学 制片人: 山本修平、松田大洋、君塚耕太、西前朱加、河内山隆、木村淳、臼倉竜太郎 音乐制作: ランティス 动画制作: 旭プロダクション 美术设计: 平良亜梨沙 OP・ED 分镜: 鈴木理人 3DCG: 旭プロダクション 协力: 梅田正勝、増田高大、柴山智歩、黒木智津子、小野寺麻里、本村康祐 (来源于: https://bgm.tv/subject/424663 )
今天 06:02 动画更新员
STORY : 嗨,我是柊宇天娜,一个热爱魔法少女的普通女孩☆ 一天,我遇到了一个看起来像是能赋予我变身力量的吉祥物,结果被施加了奇妙的魔法! 我本以为这样我也能成为魔法少女——但等一下,这是什么装扮? 我怎么变成了邪恶组织的女干部!?接下来我会怎么样呢~~~!!? 原本是魔法少女爱好者、心地善良又内向的少女,竟然变成了残忍的施虐者?!正义与邪恶之间激烈的SM游戏(!?)现在开始了!! STAFF : 原作: 小野中彰大(「魔法少⼥にあこがれて」/竹書房刊) 导演: 鈴木理人・大槻敦史 脚本: 木村暢 分镜: 鈴木理人 演出: 鈴木理人 音乐: 高梨康治・鈴木暁也・ヨハネス・ニルソン 人物设定: 大滝那佳 系列构成: 木村暢 美术监督: 平良亜梨沙 色彩设计: 上村修司 总作画监督: 大滝那佳 作画监督: 大滝那佳、島崎克実、青木真理子、大野勉、樋口香住、森あおい、服部憲知、重松佐和子、山﨑理璃花 摄影监督: 鯨井亮 道具设计: 久保川絵梨子 剪辑: 石井亜美 主题歌编曲: Motokiyo / 烏屋茶房 主题歌作曲: Motokiyo / 烏屋茶房 主题歌作词: Motokiyo / 烏屋茶房 主题歌演出: NACHERRY(村上奈津実、田中ちえ美) / エノルミータ【悪の女幹部(cv.和泉風花)、レオパルト(cv.古賀葵)、ネロアリス(cv.杉浦しおり)】 企画: 菊池剛、工藤大丈;企画协力:宮田純一朗 製作: 魔法少女にあこがれて製作委員会(KADOKAWA、ドコモ・アニメストア、MAGNET、AT-X、旭プロダクション、竹書房、バンダイナムコミュージックライブ);製作协力:笠原周造、新井孝介、福田順、中山卓也、清原誠巳、髙石優子、平山ひとみ、石井一成、相田康久、脇坂真美、倉科俊汰、松田隼典 音响监督: 本山哲 音响: ダックスプロダクション 音效: 櫻井陽子 特效: 旭プロダクション、石橋啓 执行制片人: 田中翔、渡辺隆、岩野貢、佐野圭介、柴田幹雄、後藤明信、黒田学 制片人: 山本修平、松田大洋、君塚耕太、西前朱加、河内山隆、木村淳、臼倉竜太郎 音乐制作: ランティス 动画制作: 旭プロダクション 美术设计: 平良亜梨沙 OP・ED 分镜: 鈴木理人 3DCG: 旭プロダクション 协力: 梅田正勝、増田高大、柴山智歩、黒木智津子、小野寺麻里、本村康祐 (来源于: https://bgm.tv/subject/424663 )
今天 02:01 动画更新员
拥有众多性格丰富可爱角色的实时对战人气麻将游戏雀魂,继雀魂碰之后再次动画化。 个性鲜明的雀士开始直播,又有两个男性一起开始了旅程,最后被卷入了不良的斗争之中!? 冲出一番市进入了新的环境! 众多角色献上不容忽视的吃碰杠声 让我们摆开架势 开始对局吧! Staff: 导演: 古賀一臣 脚本: 古賀一臣 分镜: 古賀一臣 演出: 古賀一臣 音乐: 椿山日南子(Dream Monster) 人物设定: 黒川あゆみ 系列构成: 古賀一臣 美术监督: 筒井典子(スタジオアクア) 色彩设计: 渡部勇輔(スタジオエル) 总作画监督: 黒川あゆみ 作画监督: 黒川あゆみ 摄影监督: 西村徹也(スタジオエル) 道具设计: 鈴木祥子 剪辑: 増永純一(Imagica EMS) 主题歌编曲: 白戸佑輔(Dream Monster) 主题歌作曲: 白戸佑輔(Dream Monster) 主题歌作词: 白戸佑輔(Dream Monster) 主题歌演出: 一姫(cv.内田真礼)、二階堂美樹(cv.斎藤千和)、かぐや姫(cv.伊瀬茉莉也)、八木唯(cv.小清水亜美) 制作管理: 阿部良祐 製作: Yostar 音响监督: 横田知加子 音响: HALF H・P STUDIO 音效: 中島勝大 特效: 太田良之 制片人: 木梨美涼、胡诚侃、程久莹、裴衍杰 动画制作: アルケ 美术设计: 筒井典子(スタジオアクア)、西澤めぐみ、三枝孝行 OP・ED 分镜: 古賀一臣 动画制片人: 阿部良祐 官方网站: https://mahjongsoul-kang.jp/ Cast: 一姬: 内田真礼 ワン次郎: 小野友树 二階堂美樹: 斋藤千和 藤田佳奈: 内田真礼 八木唯: 小清水亚美 カーヴィ: 中原麻衣 斎藤治: 安元洋贵 艾因: 柿原彻也 かぐや姫: 伊濑茉莉也 A-37: 古川慎 姫川響: 鬼头明里 福姫: 植田佳奈 七海礼奈: 堀江由衣 ゆず: 长绳麻理亚 (来源于 https://bangumi.tv/subject/473805/ ) Subtitle Staff: 翻译: Hashira 时轴: 吃货的天空 校对: Hashira 压制: 时空 繁化: 孟武 美工: 移动校车 邮箱:[email protected] 桜都子主页: https://space.bilibili.com/397758529 桜都字幕组TG交流群: https://t.me/sakuratosub
今天 02:01 动画更新员
拥有众多性格丰富可爱角色的实时对战人气麻将游戏雀魂,继雀魂碰之后再次动画化。 个性鲜明的雀士开始直播,又有两个男性一起开始了旅程,最后被卷入了不良的斗争之中!? 冲出一番市进入了新的环境! 众多角色献上不容忽视的吃碰杠声 让我们摆开架势 开始对局吧! Staff: 导演: 古賀一臣 脚本: 古賀一臣 分镜: 古賀一臣 演出: 古賀一臣 音乐: 椿山日南子(Dream Monster) 人物设定: 黒川あゆみ 系列构成: 古賀一臣 美术监督: 筒井典子(スタジオアクア) 色彩设计: 渡部勇輔(スタジオエル) 总作画监督: 黒川あゆみ 作画监督: 黒川あゆみ 摄影监督: 西村徹也(スタジオエル) 道具设计: 鈴木祥子 剪辑: 増永純一(Imagica EMS) 主题歌编曲: 白戸佑輔(Dream Monster) 主题歌作曲: 白戸佑輔(Dream Monster) 主题歌作词: 白戸佑輔(Dream Monster) 主题歌演出: 一姫(cv.内田真礼)、二階堂美樹(cv.斎藤千和)、かぐや姫(cv.伊瀬茉莉也)、八木唯(cv.小清水亜美) 制作管理: 阿部良祐 製作: Yostar 音响监督: 横田知加子 音响: HALF H・P STUDIO 音效: 中島勝大 特效: 太田良之 制片人: 木梨美涼、胡诚侃、程久莹、裴衍杰 动画制作: アルケ 美术设计: 筒井典子(スタジオアクア)、西澤めぐみ、三枝孝行 OP・ED 分镜: 古賀一臣 动画制片人: 阿部良祐 官方网站: https://mahjongsoul-kang.jp/ Cast: 一姬: 内田真礼 ワン次郎: 小野友树 二階堂美樹: 斋藤千和 藤田佳奈: 内田真礼 八木唯: 小清水亚美 カーヴィ: 中原麻衣 斎藤治: 安元洋贵 艾因: 柿原彻也 かぐや姫: 伊濑茉莉也 A-37: 古川慎 姫川響: 鬼头明里 福姫: 植田佳奈 七海礼奈: 堀江由衣 ゆず: 长绳麻理亚 (来源于 https://bangumi.tv/subject/473805/ ) Subtitle Staff: 翻译: Hashira 时轴: 吃货的天空 校对: Hashira 压制: 时空 繁化: 孟武 美工: 移动校车 邮箱:[email protected] 桜都子主页: https://space.bilibili.com/397758529 桜都字幕组TG交流群: https://t.me/sakuratosub
今天 02:01 动画更新员
STORY : 嗨,我是柊宇天娜,一个热爱魔法少女的普通女孩☆ 一天,我遇到了一个看起来像是能赋予我变身力量的吉祥物,结果被施加了奇妙的魔法! 我本以为这样我也能成为魔法少女——但等一下,这是什么装扮? 我怎么变成了邪恶组织的女干部!?接下来我会怎么样呢~~~!!? 原本是魔法少女爱好者、心地善良又内向的少女,竟然变成了残忍的施虐者?!正义与邪恶之间激烈的SM游戏(!?)现在开始了!! STAFF : 原作: 小野中彰大(「魔法少⼥にあこがれて」/竹書房刊) 导演: 鈴木理人・大槻敦史 脚本: 木村暢 分镜: 鈴木理人 演出: 鈴木理人 音乐: 高梨康治・鈴木暁也・ヨハネス・ニルソン 人物设定: 大滝那佳 系列构成: 木村暢 美术监督: 平良亜梨沙 色彩设计: 上村修司 总作画监督: 大滝那佳 作画监督: 大滝那佳、島崎克実、青木真理子、大野勉、樋口香住、森あおい、服部憲知、重松佐和子、山﨑理璃花 摄影监督: 鯨井亮 道具设计: 久保川絵梨子 剪辑: 石井亜美 主题歌编曲: Motokiyo / 烏屋茶房 主题歌作曲: Motokiyo / 烏屋茶房 主题歌作词: Motokiyo / 烏屋茶房 主题歌演出: NACHERRY(村上奈津実、田中ちえ美) / エノルミータ【悪の女幹部(cv.和泉風花)、レオパルト(cv.古賀葵)、ネロアリス(cv.杉浦しおり)】 企画: 菊池剛、工藤大丈;企画协力:宮田純一朗 製作: 魔法少女にあこがれて製作委員会(KADOKAWA、ドコモ・アニメストア、MAGNET、AT-X、旭プロダクション、竹書房、バンダイナムコミュージックライブ);製作协力:笠原周造、新井孝介、福田順、中山卓也、清原誠巳、髙石優子、平山ひとみ、石井一成、相田康久、脇坂真美、倉科俊汰、松田隼典 音响监督: 本山哲 音响: ダックスプロダクション 音效: 櫻井陽子 特效: 旭プロダクション、石橋啓 执行制片人: 田中翔、渡辺隆、岩野貢、佐野圭介、柴田幹雄、後藤明信、黒田学 制片人: 山本修平、松田大洋、君塚耕太、西前朱加、河内山隆、木村淳、臼倉竜太郎 音乐制作: ランティス 动画制作: 旭プロダクション 美术设计: 平良亜梨沙 OP・ED 分镜: 鈴木理人 3DCG: 旭プロダクション 协力: 梅田正勝、増田高大、柴山智歩、黒木智津子、小野寺麻里、本村康祐 (来源于: https://bgm.tv/subject/424663 )
今天 02:01 动画更新员
拥有众多性格丰富可爱角色的实时对战人气麻将游戏雀魂,继雀魂碰之后再次动画化。 个性鲜明的雀士开始直播,又有两个男性一起开始了旅程,最后被卷入了不良的斗争之中!? 冲出一番市进入了新的环境! 众多角色献上不容忽视的吃碰杠声 让我们摆开架势 开始对局吧! Staff: 导演: 古賀一臣 脚本: 古賀一臣 分镜: 古賀一臣 演出: 古賀一臣 音乐: 椿山日南子(Dream Monster) 人物设定: 黒川あゆみ 系列构成: 古賀一臣 美术监督: 筒井典子(スタジオアクア) 色彩设计: 渡部勇輔(スタジオエル) 总作画监督: 黒川あゆみ 作画监督: 黒川あゆみ 摄影监督: 西村徹也(スタジオエル) 道具设计: 鈴木祥子 剪辑: 増永純一(Imagica EMS) 主题歌编曲: 白戸佑輔(Dream Monster) 主题歌作曲: 白戸佑輔(Dream Monster) 主题歌作词: 白戸佑輔(Dream Monster) 主题歌演出: 一姫(cv.内田真礼)、二階堂美樹(cv.斎藤千和)、かぐや姫(cv.伊瀬茉莉也)、八木唯(cv.小清水亜美) 制作管理: 阿部良祐 製作: Yostar 音响监督: 横田知加子 音响: HALF H・P STUDIO 音效: 中島勝大 特效: 太田良之 制片人: 木梨美涼、胡诚侃、程久莹、裴衍杰 动画制作: アルケ 美术设计: 筒井典子(スタジオアクア)、西澤めぐみ、三枝孝行 OP・ED 分镜: 古賀一臣 动画制片人: 阿部良祐 官方网站: https://mahjongsoul-kang.jp/ Cast: 一姬: 内田真礼 ワン次郎: 小野友树 二階堂美樹: 斋藤千和 藤田佳奈: 内田真礼 八木唯: 小清水亚美 カーヴィ: 中原麻衣 斎藤治: 安元洋贵 艾因: 柿原彻也 かぐや姫: 伊濑茉莉也 A-37: 古川慎 姫川響: 鬼头明里 福姫: 植田佳奈 七海礼奈: 堀江由衣 ゆず: 长绳麻理亚 (来源于 https://bangumi.tv/subject/473805/ ) Subtitle Staff: 翻译: Hashira 时轴: 吃货的天空 校对: Hashira 压制: 时空 繁化: 孟武 美工: 移动校车 邮箱:[email protected] 桜都子主页: https://space.bilibili.com/397758529 桜都字幕组TG交流群: https://t.me/sakuratosub
今天 02:01 动画更新员
  导演:  金子拓  /  所俊克  /  木村宽  /  上田繁  /  山口赖房  /  中村近世  /  大野和寿  /  友田政晴  /  江岛泰男  /  左藤洋二  /  中智仁 编剧:  水上清资  /  绫奈由仁子  /  高山文彦  /  山田靖智 主演:  寿美菜子  /  丰崎爱生  /  水原薰  /  能登麻美子  /  斧笃  / 制片国家/地区:  日本 剧情简介 · · · · · ·   故事发生在由德川幕府统治的江户时代,设定中,胸部的尺寸成为了定夺一切的标准,胸大则成王,胸小为败寇。因此,拥有着祖传的可以使胸部增大的秘传书的魔乳一族,其手中才真正掌控着一切的生杀大权,家族中的长老魔乳胸侧(斧敦志 配音)更是以其高超的剑术闻名于江湖之中。作为魔乳家的小女儿,魔乳千房(寿美菜子 配音)一直都对魔乳家女性的悲惨命运深感不平,她本人更是发誓,不被家族的命运所掌控。 魔乳家代代相传的秘传书被窃了,小偷不是别人,正是家族继承人千房本人。一石激起千层浪,在利用秘传书帮助广大女性的同时,千房还要面对从各路聚集而来的,对秘传书心怀不轨的忍者刺客。同时,魔乳家族也部下了天罗地网,誓要捕获她这个叛逃者。 网盘: https://url82.ctfile.com/d/1800882-61049839-317434?p=1982  (访问密码: 1982)
05/11 15:04 环球资源
片名:魔进战队辉煌者VS龙装者/Mashin Sentai Kiramager VS Ryusoulger/魔進戦隊キラメイジャーVSリュウソウジャー 集数:正片+特典映像 音轨:FLAC 5.1 日语+FLAC 评论音轨 字幕:无 压制:Eric 文件发布:DBD制作组 可以使用电子邮箱联系本组,电子邮箱:[email protected] 已经建立TG交流群,欢迎大家加入:https://t.me/DBD_Raws_Discussion 已经成立DBD分流Q群,欢迎大家加入分流大队:560823326 本组已有爱发电主页,希望大家有能力的可以贡献自己一份力量,谢谢大家支持 爱发电主页:https://afdian.net/@112127luji DBD制作组正在招募:翻译,时间轴,校对,字幕,美工,宣传,片源,特效,压制等成员,有兴趣的朋友欢迎加入DBD制作组:1040411052 聊天吹水群(特摄):746546998 聊天吹水群(动漫):740501700 B站主页1:https://space.bilibili.com/97177229 神圣路基艾尔 B站主页2:https://space.bilibili.com/476857955 神圣之路基艾尔 下载工具请使用:qbittorrent,uTorrent等正规下载工具上传,下载完成后请打开软件再尽可能多上传,人人为我,我为人人,让其他人能够尽可能快速地下载并保持上传。 下载地址: 夸克网盘:https://pan.quark.cn/s/af16f6a6bcab 百度网盘:https://pan.baidu.com/s/1bfMeNrcK5wV_U8Y59QFLUQ?pwd=qg4y 提取码:qg4y
前天 02:00 特摄连载
片名:假面骑士歌查德 超战斗DVD 怎么办!?宝太郎和凛音的身体互相交换了!!/Kamen Rider Gotchard Hyper Battle DVD What's That! Houtaro and Rinne Switched Places!!/てれびくん超バトルDVD 仮面ライダーガッチャード どうする!? 宝太郎とりんねがいれかわっちゃった!! 集数:正片 音轨:AC3 日语 字幕:无 压制:Eric 文件发布:DBD制作组 可以使用电子邮箱联系本组,电子邮箱:[email protected] 已经建立TG交流群,欢迎大家加入:https://t.me/DBD_Raws_Discussion 已经成立DBD分流Q群,欢迎大家加入分流大队:560823326 本组已有爱发电主页,希望大家有能力的可以贡献自己一份力量,谢谢大家支持 爱发电主页:https://afdian.net/@112127luji DBD制作组正在招募:翻译,时间轴,校对,字幕,美工,宣传,片源,特效,压制等成员,有兴趣的朋友欢迎加入DBD制作组:1040411052 聊天吹水群(特摄):746546998 聊天吹水群(动漫):740501700 B站主页1:https://space.bilibili.com/97177229 神圣路基艾尔 B站主页2:https://space.bilibili.com/476857955 神圣之路基艾尔 下载工具请使用:qbittorrent,uTorrent等正规下载工具上传,下载完成后请打开软件再尽可能多上传,人人为我,我为人人,让其他人能够尽可能快速地下载并保持上传。 下载地址: 夸克网盘:https://pan.quark.cn/s/1d486fb9bade 百度网盘:https://pan.baidu.com/s/1BTxKEi0aKT5_NfAEvhxSzg?pwd=q1sx 提取码:q1sx
05/14 16:29 特摄连载
HD 1080p from TTFC. General Unique ID : 6898254209528223881514492308848347108 (0x5308E30F6780ED5A9F1755C611787E4) Complete name : [MagicStar] Bakuage Sentai Boonboomger EP10 [WEBDL] [1080p].mkv Format : Matroska Format version : Version 4 File size : 759 MiB Duration : 23 min 30 s Overall bit rate : 4 517 kb/s Frame rate : 23.976 FPS Writing application : Lavf57.48.101 Writing library : Lavf57.48.101 DATE : 2024-05-05T09:01:54.5031100+08:00 Video ID : 1 Format : AVC Format/Info : Advanced Video Codec Format profile : High@L4 Format settings : CABAC / 4 Ref Frames Format settings, CABAC : Yes Format settings, Reference fra : 4 frames Format settings, GOP : M=3, N=48 Codec ID : V_MPEG4/ISO/AVC Duration : 23 min 29 s Width : 1 920 pixels Height : 1 080 pixels Display aspect ratio : 16:9 Frame rate mode : Constant Frame rate : 23.976 (24000/1001) FPS Color space : YUV Chroma subsampling : 4:2:0 Bit depth : 8 bits Scan type : Progressive Writing library : x264 core 148 Encoding settings : cabac=1 / ref=4 / deblock=1:1:1 / analyse=0x3:0x113 / me=hex / subme=7 / psy=1 / psy_rd=0.40:0.00 / mixed_ref=1 / me_range=16 / chroma_me=1 / trellis=1 / 8x8dct=1 / cqm=0 / deadzone=21,11 / fast_pskip=1 / chroma_qp_offset=-2 / threads=34 / lookahead_threads=5 / sliced_threads=0 / nr=0 / decimate=1 / interlaced=0 / bluray_compat=0 / constrained_intra=0 / bframes=2 / b_pyramid=2 / b_adapt=0 / b_bias=0 / direct=1 / weightb=1 / open_gop=0 / weightp=2 / keyint=48 / keyint_min=25 / scenecut=0 / intra_refresh=0 / rc_lookahead=40 / rc=crf / mbtree=1 / crf=23.0 / qcomp=0.60 / qpmin=0 / qpmax=69 / qpstep=4 / vbv_maxrate=6000 / vbv_bufsize=6000 / crf_max=0.0 / nal_hrd=none / filler=0 / ip_ratio=1.40 / aq=1:0.60 Default : Yes Forced : No Audio ID : 2 Format : AAC LC Format/Info : Advanced Audio Codec Low Complexity Codec ID : A_AAC-2 Duration : 23 min 30 s Channel(s) : 2 channels Channel layout : L R Sampling rate : 48.0 kHz Frame rate : 46.875 FPS (1024 SPF) Compression mode : Lossy Delay relative to video : -42 ms Default : Yes Forced : No
05/14 16:29 特摄连载
HD 1080p from TTFC. General Unique ID : 185604698497176672876348081603230834327 (0x8BA22A27841E9D8AA9CD41007F9C1E97) Complete name : [MagicStar] Kamen Rider Gotchard EP34 [WEBDL] [1080p].mkv Format : Matroska Format version : Version 4 File size : 686 MiB Duration : 23 min 30 s Overall bit rate : 4 078 kb/s Frame rate : 23.976 FPS Writing application : Lavf57.48.101 Writing library : Lavf57.48.101 DATE : 2024-05-05T08:48:50.3037837+08:00 Video ID : 1 Format : AVC Format/Info : Advanced Video Codec Format profile : High@L4 Format settings : CABAC / 4 Ref Frames Format settings, CABAC : Yes Format settings, Reference fra : 4 frames Format settings, GOP : M=3, N=48 Codec ID : V_MPEG4/ISO/AVC Duration : 23 min 29 s Width : 1 920 pixels Height : 1 080 pixels Display aspect ratio : 16:9 Frame rate mode : Constant Frame rate : 23.976 (24000/1001) FPS Color space : YUV Chroma subsampling : 4:2:0 Bit depth : 8 bits Scan type : Progressive Writing library : x264 core 148 Encoding settings : cabac=1 / ref=4 / deblock=1:1:1 / analyse=0x3:0x113 / me=hex / subme=7 / psy=1 / psy_rd=0.40:0.00 / mixed_ref=1 / me_range=16 / chroma_me=1 / trellis=1 / 8x8dct=1 / cqm=0 / deadzone=21,11 / fast_pskip=1 / chroma_qp_offset=-2 / threads=30 / lookahead_threads=5 / sliced_threads=0 / nr=0 / decimate=1 / interlaced=0 / bluray_compat=0 / constrained_intra=0 / bframes=2 / b_pyramid=2 / b_adapt=0 / b_bias=0 / direct=1 / weightb=1 / open_gop=0 / weightp=2 / keyint=48 / keyint_min=25 / scenecut=0 / intra_refresh=0 / rc_lookahead=40 / rc=crf / mbtree=1 / crf=23.0 / qcomp=0.60 / qpmin=0 / qpmax=69 / qpstep=4 / vbv_maxrate=6000 / vbv_bufsize=6000 / crf_max=0.0 / nal_hrd=none / filler=0 / ip_ratio=1.40 / aq=1:0.60 Default : Yes Forced : No Audio ID : 2 Format : AAC LC Format/Info : Advanced Audio Codec Low Complexity Codec ID : A_AAC-2 Duration : 23 min 30 s Channel(s) : 2 channels Channel layout : L R Sampling rate : 48.0 kHz Frame rate : 46.875 FPS (1024 SPF) Compression mode : Lossy Delay relative to video : -42 ms Default : Yes Forced : No
05/14 16:29 特摄连载
HD 1080p from TTFC. General Unique ID : 277352166029439606215323446754131190008 (0xD0A8158C24D4E31184626ABD667A20F8) Complete name : [MagicStar] Bakuage Sentai Boonboomger EP09 [WEBDL] [1080p].mkv Format : Matroska Format version : Version 4 File size : 652 MiB Duration : 23 min 30 s Overall bit rate : 3 881 kb/s Frame rate : 23.976 FPS Writing application : Lavf57.48.101 Writing library : Lavf57.48.101 DATE : 2024-04-30T11:43:50.1247338+08:00 Video ID : 1 Format : AVC Format/Info : Advanced Video Codec Format profile : High@L4 Format settings : CABAC / 4 Ref Frames Format settings, CABAC : Yes Format settings, Reference fra : 4 frames Format settings, GOP : M=3, N=48 Codec ID : V_MPEG4/ISO/AVC Duration : 23 min 29 s Width : 1 920 pixels Height : 1 080 pixels Display aspect ratio : 16:9 Frame rate mode : Constant Frame rate : 23.976 (24000/1001) FPS Color space : YUV Chroma subsampling : 4:2:0 Bit depth : 8 bits Scan type : Progressive Writing library : x264 core 148 Encoding settings : cabac=1 / ref=4 / deblock=1:1:1 / analyse=0x3:0x113 / me=hex / subme=7 / psy=1 / psy_rd=0.40:0.00 / mixed_ref=1 / me_range=16 / chroma_me=1 / trellis=1 / 8x8dct=1 / cqm=0 / deadzone=21,11 / fast_pskip=1 / chroma_qp_offset=-2 / threads=30 / lookahead_threads=5 / sliced_threads=0 / nr=0 / decimate=1 / interlaced=0 / bluray_compat=0 / constrained_intra=0 / bframes=2 / b_pyramid=2 / b_adapt=0 / b_bias=0 / direct=1 / weightb=1 / open_gop=0 / weightp=2 / keyint=48 / keyint_min=25 / scenecut=0 / intra_refresh=0 / rc_lookahead=40 / rc=crf / mbtree=1 / crf=23.0 / qcomp=0.60 / qpmin=0 / qpmax=69 / qpstep=4 / vbv_maxrate=6000 / vbv_bufsize=6000 / crf_max=0.0 / nal_hrd=none / filler=0 / ip_ratio=1.40 / aq=1:0.60 Default : Yes Forced : No Audio ID : 2 Format : AAC LC Format/Info : Advanced Audio Codec Low Complexity Codec ID : A_AAC-2 Duration : 23 min 30 s Channel(s) : 2 channels Channel layout : L R Sampling rate : 48.0 kHz Frame rate : 46.875 FPS (1024 SPF) Compression mode : Lossy Delay relative to video : -42 ms Default : Yes Forced : No
05/14 16:29 特摄连载
HD 1080p from TTFC. General Unique ID : 164505601233467752839718064761262233245 (0x7BC2A0580C1FF5F8EF41E4F6367ED69D) Complete name : [MagicStar] Kamen Rider Gotchard EP33 [WEBDL] [1080p].mkv Format : Matroska Format version : Version 4 File size : 784 MiB Duration : 23 min 15 s Overall bit rate : 4 713 kb/s Frame rate : 23.976 FPS Writing application : Lavf57.48.101 Writing library : Lavf57.48.101 DATE : 2024-04-30T11:42:21.3570513+08:00 Video ID : 1 Format : AVC Format/Info : Advanced Video Codec Format profile : High@L4 Format settings : CABAC / 4 Ref Frames Format settings, CABAC : Yes Format settings, Reference fra : 4 frames Format settings, GOP : M=3, N=48 Codec ID : V_MPEG4/ISO/AVC Duration : 23 min 15 s Width : 1 920 pixels Height : 1 080 pixels Display aspect ratio : 16:9 Frame rate mode : Constant Frame rate : 23.976 (24000/1001) FPS Color space : YUV Chroma subsampling : 4:2:0 Bit depth : 8 bits Scan type : Progressive Writing library : x264 core 148 Encoding settings : cabac=1 / ref=4 / deblock=1:1:1 / analyse=0x3:0x113 / me=hex / subme=7 / psy=1 / psy_rd=0.40:0.00 / mixed_ref=1 / me_range=16 / chroma_me=1 / trellis=1 / 8x8dct=1 / cqm=0 / deadzone=21,11 / fast_pskip=1 / chroma_qp_offset=-2 / threads=30 / lookahead_threads=5 / sliced_threads=0 / nr=0 / decimate=1 / interlaced=0 / bluray_compat=0 / constrained_intra=0 / bframes=2 / b_pyramid=2 / b_adapt=0 / b_bias=0 / direct=1 / weightb=1 / open_gop=0 / weightp=2 / keyint=48 / keyint_min=25 / scenecut=0 / intra_refresh=0 / rc_lookahead=40 / rc=crf / mbtree=1 / crf=23.0 / qcomp=0.60 / qpmin=0 / qpmax=69 / qpstep=4 / vbv_maxrate=6000 / vbv_bufsize=6000 / crf_max=0.0 / nal_hrd=none / filler=0 / ip_ratio=1.40 / aq=1:0.60 Default : Yes Forced : No Audio ID : 2 Format : AAC LC Format/Info : Advanced Audio Codec Low Complexity Codec ID : A_AAC-2 Duration : 23 min 15 s Channel(s) : 2 channels Channel layout : L R Sampling rate : 48.0 kHz Frame rate : 46.875 FPS (1024 SPF) Compression mode : Lossy Delay relative to video : -42 ms Default : Yes Forced : No
05/14 16:29 特摄连载
HD 1080p from TTFC. General Unique ID : 182544474828811128784178218883267624958 (0x8954C97A813ABB30ED269A672AAEFFFE) Complete name : [MagicStar] Kamen Rider Faiz - Satsujin Jiken - Kaiketsu-hen [WEBDL] [1080p].mkv Format : Matroska Format version : Version 4 File size : 350 MiB Duration : 10 min 34 s Overall bit rate mode : Variable Overall bit rate : 4 623 kb/s Frame rate : 23.976 FPS Writing application : Lavf57.48.101 Writing library : Lavf57.48.101 DATE : 2024-05-05T08:52:21.0359234+08:00 Video ID : 1 Format : AVC Format/Info : Advanced Video Codec Format profile : [email protected] Format settings : CABAC / 4 Ref Frames Format settings, CABAC : Yes Format settings, Reference fra : 4 frames Codec ID : V_MPEG4/ISO/AVC Duration : 10 min 34 s Bit rate mode : Variable Nominal bit rate : 4 500 kb/s Maximum bit rate : 10 000 kb/s Width : 1 920 pixels Height : 1 080 pixels Display aspect ratio : 16:9 Frame rate mode : Constant Frame rate : 23.976 (24000/1001) FPS Standard : Component Color space : YUV Chroma subsampling : 4:2:0 Bit depth : 8 bits Scan type : Progressive Bits/(Pixel*Frame) : 0.091 Writing library : x264 core 155 Encoding settings : cabac=1 / ref=4 / deblock=1:0:0 / analyse=0x1:0x111 / me=hex / subme=7 / psy=1 / psy_rd=1.00:0.00 / mixed_ref=1 / me_range=16 / chroma_me=1 / trellis=1 / 8x8dct=0 / cqm=0 / deadzone=21,11 / fast_pskip=1 / chroma_qp_offset=-2 / threads=12 / lookahead_threads=2 / sliced_threads=0 / slices=1 / nr=0 / decimate=1 / interlaced=0 / minigop=0 / stitchable=1 / constrained_intra=0 / bframes=3 / b_pyramid=0 / b_adapt=1 / b_bias=0 / direct=1 / weightb=1 / open_gop=0 / weightp=2 / keyint=250 / keyint_min=23 / scenecut=40 / intra_refresh=0 / rc_lookahead=40 / rc=abr / mbtree=1 / bitrate=4500 / ratetol=1.0 / qcomp=0.60 / qpmin=0 / qpmax=69 / qpstep=4 / vbv_maxrate=10000 / vbv_bufsize=10000 / nal_hrd=vbr / filler=0 / ip_ratio=1.40 / aq=1:1.00 Default : Yes Forced : No Color range : Limited Color primaries : BT.709 Transfer characteristics : BT.709 Matrix coefficients : BT.709 Audio ID : 2 Format : AAC LC Format/Info : Advanced Audio Codec Low Complexity Codec ID : A_AAC-2 Duration : 10 min 34 s Channel(s) : 2 channels Channel layout : L R Sampling rate : 48.0 kHz Frame rate : 46.875 FPS (1024 SPF) Compression mode : Lossy Default : Yes Forced : No
05/14 16:29 特摄连载
HD 1080p from TTFC. General Unique ID : 184070291115922546058714450329580203312 (0x8A7AA6079582F09052939637A831ED30) Complete name : [MagicStar] Kamen Rider Faiz - Satsujin Jiken - Mondai-hen [WEBDL] [1080p].mkv Format : Matroska Format version : Version 4 File size : 281 MiB Duration : 7 min 51 s Overall bit rate : 5 002 kb/s Frame rate : 23.976 FPS Writing application : Lavf57.48.101 Writing library : Lavf57.48.101 DATE : 2024-05-05T08:55:09.9888463+08:00 Video ID : 1 Format : AVC Format/Info : Advanced Video Codec Format profile : High@L4 Format settings : 3 Ref Frames Format settings, CABAC : No Format settings, Reference fra : 3 frames Codec ID : V_MPEG4/ISO/AVC Duration : 7 min 51 s Bit rate mode : Constant Nominal bit rate : 4 808 kb/s Width : 1 920 pixels Height : 1 080 pixels Display aspect ratio : 16:9 Frame rate mode : Constant Frame rate : 23.976 (24000/1001) FPS Standard : NTSC Color space : YUV Chroma subsampling : 4:2:0 Bit depth : 8 bits Scan type : Progressive Bits/(Pixel*Frame) : 0.097 Default : Yes Forced : No Color range : Limited Color primaries : BT.709 Transfer characteristics : BT.709 Matrix coefficients : BT.709 Audio ID : 2 Format : AAC LC Format/Info : Advanced Audio Codec Low Complexity Codec ID : A_AAC-2 Duration : 7 min 51 s Channel(s) : 2 channels Channel layout : L R Sampling rate : 48.0 kHz Frame rate : 46.875 FPS (1024 SPF) Compression mode : Lossy Delay relative to video : -33 ms Default : Yes Forced : No
05/14 16:29 特摄连载
HD 1080p from TTFC. General Unique ID : 215830199071306831663708204532586072847 (0xA25F62636A2D7D6480C983BBE0794B0F) Complete name : [MagicStar] Kamen Rider Outsiders EP05 [WEBDL] [1080p].mkv Format : Matroska Format version : Version 4 File size : 1.16 GiB Duration : 23 min 15 s Overall bit rate : 7 160 kb/s Frame rate : 23.976 FPS Writing application : Lavf57.48.101 Writing library : Lavf57.48.101 DATE : 2024-05-12T09:40:45.8216568+08:00 Video ID : 1 Format : AVC Format/Info : Advanced Video Codec Format profile : High@L4 Format settings : CABAC / 4 Ref Frames Format settings, CABAC : Yes Format settings, Reference fra : 4 frames Codec ID : V_MPEG4/ISO/AVC Duration : 23 min 15 s Bit rate mode : Constant Nominal bit rate : 8 000 kb/s Width : 1 920 pixels Height : 1 080 pixels Display aspect ratio : 16:9 Frame rate mode : Constant Frame rate : 23.976 (24000/1001) FPS Standard : NTSC Color space : YUV Chroma subsampling : 4:2:0 Bit depth : 8 bits Scan type : Progressive Bits/(Pixel*Frame) : 0.161 Writing library : x264 core 155 Encoding settings : cabac=1 / ref=4 / deblock=1:0:0 / analyse=0x3:0x113 / me=hex / subme=7 / psy=1 / psy_rd=1.00:0.00 / mixed_ref=1 / me_range=16 / chroma_me=1 / trellis=1 / 8x8dct=1 / cqm=1 / deadzone=21,11 / fast_pskip=1 / chroma_qp_offset=-2 / threads=34 / lookahead_threads=5 / sliced_threads=0 / slices=1 / nr=0 / decimate=1 / interlaced=0 / minigop=0 / stitchable=1 / constrained_intra=0 / bframes=3 / b_pyramid=0 / b_adapt=1 / b_bias=0 / direct=1 / weightb=1 / open_gop=0 / weightp=1 / keyint=250 / keyint_min=23 / scenecut=40 / intra_refresh=0 / rc_lookahead=40 / rc=cbr / mbtree=1 / bitrate=8000 / ratetol=1.0 / qcomp=0.60 / qpmin=3 / qpmax=69 / qpstep=4 / vbv_maxrate=8000 / vbv_bufsize=8000 / nal_hrd=cbr / filler=1 / ip_ratio=1.40 / aq=1:1.00 Default : Yes Forced : No Color range : Limited Color primaries : BT.709 Transfer characteristics : BT.709 Matrix coefficients : BT.709 Audio ID : 2 Format : AAC LC Format/Info : Advanced Audio Codec Low Complexity Codec ID : A_AAC-2 Duration : 23 min 15 s Channel(s) : 2 channels Channel layout : L R Sampling rate : 48.0 kHz Frame rate : 46.875 FPS (1024 SPF) Compression mode : Lossy Default : Yes Forced : No
05/14 16:29 特摄连载
HD 1080p from Prime Video. Use CBR bitrate mode. We are planning to upload all Prime Video Japan Dramas and Movies, we need your Support! Support Us Ali (Zhifubao / QR code): https://i.ibb.co/FWV2ggm/1660626347125.png PayPalMe: https://www.paypal.com/paypalme/sakuragikenji BTC (USDT): 19y5NF6voysif7PeJLv86Hf186ZS1i4rwu ETH: 0x807B4eec355Cfa65500BeE65A992a9a0d8432697 LTC: LUC2dTQkte7muv5oUUuRNJimLJvi9pgZUQ General Unique ID : 42335558836770986039493940300207936058 (0x1FD9883445AEF7CF1A11EE815CA0D23A) Complete name : Bakuage.Sentai.Boonboomger.EP07.1080p.AMZN.WEB-DL.DDP2.0.H.264-MagicStar.mkv Format : Matroska Format version : Version 4 File size : 1.62 GiB Duration : 23 min 31 s Overall bit rate mode : Constant Overall bit rate : 9 885 kb/s Frame rate : 23.976 FPS Encoded date : 2024-04-18 08:30:26 UTC Writing application : mkvmerge v50.0.0 ('Awakenings') 64-bit Writing library : libebml v1.4.0 + libmatroska v1.6.2 Cover : Yes Attachments : cover.jpg Video ID : 1 Format : AVC Format/Info : Advanced Video Codec Format profile : High@L4 Format settings : CABAC / 4 Ref Frames Format settings, CABAC : Yes Format settings, Reference fra : 4 frames Codec ID : V_MPEG4/ISO/AVC Duration : 23 min 31 s Bit rate mode : Constant Bit rate : 10 000 kb/s Width : 1 920 pixels Height : 1 080 pixels Display aspect ratio : 16:9 Frame rate mode : Constant Frame rate : 23.976 (24000/1001) FPS Color space : YUV Chroma subsampling : 4:2:0 Bit depth : 8 bits Scan type : Progressive Bits/(Pixel*Frame) : 0.201 Stream size : 1.59 GiB (98%) Default : Yes Forced : No Color range : Limited Color primaries : BT.709 Transfer characteristics : BT.709 Matrix coefficients : BT.709 Audio ID : 2 Format : E-AC-3 Format/Info : Enhanced AC-3 Commercial name : Dolby Digital Plus Codec ID : A_EAC3 Duration : 23 min 31 s Bit rate mode : Constant Bit rate : 224 kb/s Channel(s) : 2 channels Channel layout : L R Sampling rate : 48.0 kHz Frame rate : 31.250 FPS (1536 SPF) Compression mode : Lossy Stream size : 37.7 MiB (2%) Title : 日本語 [オリジナル] Language : Japanese Service kind : Complete Main Default : Yes Forced : No
05/14 16:29 特摄连载
HD 1080p from TTFC. General Unique ID : 258947327689067564354808614536522587950 (0xC2CF70F534AC7DFCC86703723D6D5F2E) Complete name : [MagicStar] Bakuage Sentai Boonboomger EP11 [WEBDL] [1080p].mkv Format : Matroska Format version : Version 4 File size : 739 MiB Duration : 23 min 30 s Overall bit rate : 4 398 kb/s Frame rate : 23.976 FPS Writing application : Lavf57.48.101 Writing library : Lavf57.48.101 DATE : 2024-05-12T09:08:37.9768881+08:00 Video ID : 1 Format : AVC Format/Info : Advanced Video Codec Format profile : High@L4 Format settings : CABAC / 4 Ref Frames Format settings, CABAC : Yes Format settings, Reference fra : 4 frames Format settings, GOP : M=3, N=48 Codec ID : V_MPEG4/ISO/AVC Duration : 23 min 30 s Width : 1 920 pixels Height : 1 080 pixels Display aspect ratio : 16:9 Frame rate mode : Constant Frame rate : 23.976 (24000/1001) FPS Color space : YUV Chroma subsampling : 4:2:0 Bit depth : 8 bits Scan type : Progressive Writing library : x264 core 148 Encoding settings : cabac=1 / ref=4 / deblock=1:1:1 / analyse=0x3:0x113 / me=hex / subme=7 / psy=1 / psy_rd=0.40:0.00 / mixed_ref=1 / me_range=16 / chroma_me=1 / trellis=1 / 8x8dct=1 / cqm=0 / deadzone=21,11 / fast_pskip=1 / chroma_qp_offset=-2 / threads=30 / lookahead_threads=5 / sliced_threads=0 / nr=0 / decimate=1 / interlaced=0 / bluray_compat=0 / constrained_intra=0 / bframes=2 / b_pyramid=2 / b_adapt=0 / b_bias=0 / direct=1 / weightb=1 / open_gop=0 / weightp=2 / keyint=48 / keyint_min=25 / scenecut=0 / intra_refresh=0 / rc_lookahead=40 / rc=crf / mbtree=1 / crf=23.0 / qcomp=0.60 / qpmin=0 / qpmax=69 / qpstep=4 / vbv_maxrate=6000 / vbv_bufsize=6000 / crf_max=0.0 / nal_hrd=none / filler=0 / ip_ratio=1.40 / aq=1:0.60 Default : Yes Forced : No Audio ID : 2 Format : AAC LC Format/Info : Advanced Audio Codec Low Complexity Codec ID : A_AAC-2 Duration : 23 min 30 s Channel(s) : 2 channels Channel layout : L R Sampling rate : 48.0 kHz Frame rate : 46.875 FPS (1024 SPF) Compression mode : Lossy Delay relative to video : -42 ms Default : Yes Forced : No
05/14 16:29 特摄连载
歌曲实在是太多太多了,整理部分方便大家也方便自己今后找无损歌曲。 没有必要全部下载,下载自己想听的即可。 magnet:?xt=urn:btih:F9DCE3FC0D74C7D2ADED669367E7B606E20251DC 石芮桉 - 良夜至 周梓琦 - 琵 陆虎 - 只是误会 金玟岐 - 谁 金志文 - 难愈 王栎鑫 - 黑白 张赫煊 - 较量 刘瑞琦 - 当我爱你没有理由 魏哲鸣 - 明明喜欢你 胡意旋 - 晴天约会 田丹 - 时过境迁 丁丁 - It's you 李琦 - 我爱你 像命中注定的逃不了 李琦 - 单行线 朱亚文&郑元畅&李佳航 - 单行线 朱亚文 - 单行线 何洁 - 我爱你 像命中注定的逃不了 马頔 - 来年今日秋 疤鹤.BrothaHood - 1928年的北京城 汪晨蕊 - 向阳 朱兴东 - 且尽手中杯 七元 - 偶然 七元 - 水面之外 七元 - Fade Away S.K.Y天空少年 - 大麻烦 Riley Goldstein - Would You Think Of Me 陈佳懿 - 陌路繁华 崔凯琦 - 独守空城梦旧人 关晓彤 - 音梦 何曼婷 - 要抱抱举高高 何岩 - 花开时 华语群星 - 在一起 黄雅莉 - 一瓣时光 嘉羿 - Step by Step 蒋申 - 烟雨归 鞠婧祎 - 莫离 鞠婧祎 - 醉飞霜 卡修Rui - 相思泪 李佳薇 - 无份 李沐籽 - 路牌 林之一 - 相遇星空 刘凤瑶 - 画中有话 宋宇宁 - 长恨歌 王子 - 天空城 伍嘉成&斯外戈 - 生来倔强 萧忆情Alex - 江湖 许梦宸 - 漫长的雨后 要不要买菜 - 春来时 张宇俊如 - 梦回夜 张远 - 日月之下 张云成 - 情深以航 执素兮 - 不朽 阿YueYue - 柳烟三十里 阿YueYue - 烟雨落扬州 蔡淳佳 - 爱情悖论 (女生版) 蔡旻佑 - 问问爱情 陈昊宇 - 失重体验 陈皓宸 - 狂热派对 崔子格 - 缘分有天意 崔子格 - 月光皎皎 崔子格&徐良 - 凡尘 单依纯 - 续写 杜婧荧 - 读懂 段奥娟 - 心跳蔓延 房东的猫 - 初恋的朦胧诗 高嘉朗 - 重逢 耿斯汉 - 原罪 官鸿 - 凡尘 官鸿&傅孟柏&刘耀元 - 夜阑珊 管栎 - 距离 韩安旭 - 彩虹以外的颜色 和汇慧 - 不要错过 红格格 - Miss爱幻想 洪一诺 - 时光曲 胡夏 - 青春大满贯 黄绮珊 - 活着 黄霄雲 - 灿若星辰 黄雅莉 - 荼蘼花落 吉克隽逸 - 答字书 姜钧馨 - 存在的未来 姜钧馨 - 叹息 蒋申 - 不算孤岛 金玟岐 - 依你 金润吉 - 终于遇见你 康青林 - 握手言和 来一碗老于 - 茫茫 黎林添娇 - Say I love u 李俊毅JUNI&锦零 - 与你共度良辰时光 李琦 - 缺角 李希侃SayKan - 织梦师 李鑫一 - 你好吗 李依玲 - 不能做你的唯一 李长庚 - Oh My Happiness Circuit 李长庚 - 请你陪在我的未来 梁森 - 光 林慧 - 如果那一天的雨没有下 林昕宜 - 时光彼岸 刘彬濠 - Let's be there forever 刘彬濠 - 爱上你 刘明湘 - 确定了就是你 刘桐 - 胡不归去 栾贻泽Felix - 终于遇见了对手 栾贻泽Felix&丁聪 - 幸福的预兆 旅行团乐队 - 战星河 莫非定律乐团 - 水滴 牛炯文 - 谁 潘时七 - 每一刻暖暖 庞琪祥 - 与彼于此 圈9 - 走在你身旁 权振东 - 一个人流浪 树林座 - 水火 斯斯与帆 - 暖光 苏醒AllenSu - 单向路口 谭松韵 - 嘴角的甜 汤梦佳 - 不能说 (女声版) 田燚 - 是时候 王卡农 - 盛夏抵达 王栎鑫 - 寻找 王瑞淇 - 小时光 王欣茹 - 寂夜 王欣茹 - 梦醒时离开你的城市 王一桥 - 怦然之际 王以纶 - Chance 王铮亮 - 生而不凡 王子铭EOPT - 并非意外 魏巡 - 正少年 吴汉坤 - 你好吗 吴希泽 - 亲爱的朋友 (特别版) 吴钰霞 - 不一样的姑娘 武星 - 云上的日子 夏恒 - 凯旋 夏花-魏奇奇 - 亲爱的朋友 夏花-魏奇奇 - 少女四季 许明明 - 蒲公英子 萱萱 - 假装 炎明熹 - 光芒之中 姚晨&Joyside - 黑夜有你就是白天 宇西 - 明白 园田芳雄 - 极速 翟天临&尹正 - 与我并肩 张楚寒 - 你面前的那个我 张冠森 - The one 张冠森&余玥 - 刚刚好 张杰 - 万人之间 张一山 - 无双 张宇俊如 - 情丝谣 张宇俊如 - 全心全意 张远 - 倒海翻江 赵广为 - 凯旋 (哼唱版) 赵慧娟 - 一寸时光 钟抒曈&常一允琰 - 小熊饼干 (合唱版) 周蕙 - 和解局 周品 - 缺角 周品 - 下一个十年 周晓鸥 - 笨拙的爱 周翊然 - 心事 朱兴东&曾咏欣 - 难得 朱主爱 - 小熊饼干 (单人版) EnjiA魏恩佳 - Ever Wonder JA符龙飞 - 不能说 MiMi李紫婷 - 一万次相遇 SING-许诗茵&王子铭EOPT - 一天一点 丢火车乐队 - Stars Fall 何洁 - Fall in love with you 何一 - 寻真 何屹繁 - 我想 刘凡 - 又想起你 刘冠佑 - 青春碎碎念 刘人语 - Light up 冼靖峰 - 如果只有这一瞬间 于果 - 风落深海 于湉 - 青空之下 余枫 - 变作谁 余佳运 - 爱情悖论 (男生版) 余佳运 - 我们会走去哪里 余景天 - 回忆忽然醒来 俞灏明 - 无畏之人 仲夏 - 俏 金玟岐 - 寻光而来 茜西 - 飙戏 安又琪 - 慢慢热的思念 Nene郑乃馨 - kiss me 孙浩 - 心灵的目光 高嘉朗 - 字诀 毛阿敏&小石头和孩子们 - 唱支山歌给党听 西贝木子&万思维 - 如愿之愿 张恋歌 - 风起西州 种丹妮 - 转身 李祥祥 - 奔跑的女孩 李琦 - 城市 SNH48黄婷婷 - 星光闪耀 种丹妮 - 不孤单 李祥祥 - 原谅 李琦 - 愚笨如我 戴萌 - 一天一点 SNH48黄婷婷&戴萌&李艺彤 - 展翅高飞 马吟吟 - 微小的破绽 赵健 - 冷漠舞步 李艺彤 - 巧克力与橙果粒 李琦 - 爱的颜色 张欣奕 - 蝴蝶飞飞 马吟吟 - 往事 许多葵 - 星途闪耀 李琦 - 冬日熊 张欣奕 - 大笨蛋 胡夏 - 何为永恒 李琦 - 赤子心 周深 - 此生惟你 周深 - 风起流年 李琦 - 问天 茅小勇 - 悟爱 周深 - 彼岸花 那英 - 熟年 连淮伟 - 奉陪 曹寅 - 你出现后 安又琪 - 瞬息 胡夏 - 打动 李炜 - 也许 张磊 - 幸福一家人 张婧 - 流动时光 于湉 - 有梦最美 崔雨鑫 - 再给世界一点光 崔雨鑫 - 一切尽在掌握 黄圣池 - 勾勾手的约定 范世錡&黄圣池&朱元冰&李汶翰&李希侃SayKan - 追光的你 (男生版) 范世錡 - 来日方甜 (男生版) 范世錡 - 小情书 范世錡 - 女朋友要吃苹果 洪潇 - 硬糖甜心 洪潇 - 硬糖甜心 (抒情版) 李艺彤 - 追光的你 (女生版) 李艺彤 - 爱与骄傲 李艺彤 - 来日方甜 (女生版) 李汶翰 - 软糖沙滩 李希侃SayKan - 乖男孩 朱元冰 - 就让我 卢洋洋 - 明明就 卜冠今&李艺彤&卢洋洋&洪潇 - 恋爱辞典 (女生版) 卜冠今 - 想飞 陆虎&周深 - 缘落 陆虎 - 莫测 罗云熙 - 缘起 黄伟晋 - 换一个心动 王诗安 - 爱存在 王诗安 - 刚刚好 SpeXial - 拚贴记忆 SpeXial - Break It Down 金志文 - 我的骄傲 摩登兄弟刘宇宁 - 生命之书 摩登兄弟刘宇宁 - 仰望晴空 张磊 - 攀 高泰宇 - 杯中寒 李君 - 踏莎行•二社良辰 杨坤 - 渡我 李君 - 蓦山溪•墨梅 孙楠 - 归处 周深 - 无疾而终 洪川&甘沛 - 春天,喧哗的河水 鲁士郎&王明宇 - 困兽 树林座 - 一念之间 吴彤 - 燃烧大地 金玟岐 - 那么多 谭松韵 - 终于可以说出那句我爱你 田园 - 寓言 王赫野 - 甜蜜来袭 希林娜依高 - 寓言 姚婷婷 - 那么多 樊凡 - 留在故事中 樊凡 - 最后一个傻子 樊凡 - 心好疼 樊凡 - 你会更快乐 樊凡 - 为你快乐 任重 - 爱的魔法师 淡敏仪&梁妙翠 - 新月光光 淡敏仪&梁妙翠 - 一折二折 徐子未 - 如若有光 胡夏 - 梦中的那片海 粉红小白 - 书签 粉红小白 - 心之所向 小壮 - 我们的故事 小壮 - 只要你在 颜人中 - 去爱你 秦岚 - 我愿意 王子异 - 意中人 张靓颖 - 蝴蝶飓风 张靓颖 - 蝴蝶飓风 (orchestra) 金贵晟 - 无悔昨天 金润吉 - 火鸟 许艺娜 - 漫长的告别 朱兴东 - 炽热的心 张翰 - 烽烟 雷佳 - 一生挚爱 阿云嘎 - 从时光中走来 孙楠 - 光荣与梦想 周深 - 繁星璀璨的天空 陈琪东 - 轻敌 罗云熙 - Because of you 李润祺 - 树洞有光 汪睿 - Mrs. Right 张天 - Circle of Love 希林娜依高 - 寂静之忆 安唯绫 - Your Moon 司南 - 我的太阳 BY2 - 启明星 韩东君 - 极速青春 王诗安 - Shining Star 李琦 - 沉默的愿望 唐汉霄 - 卡西尼 丁野 - This one is for you 黄霄雲 - 你懂的思念 陈伟霆 - 像风一样离开 王嘉诚 - 空空 李允儿 - 越过风暴奔向你 李允儿 - 自言自语 摩登兄弟刘宇宁 - 呢喃 娜扎 - 小光阴 刘惜君 - 风筝与树 叶里 - 小狐狸 (欢快版) 叶里 - 小狐狸 金贤正 - 我以为 潘艺翔 - 爱情降临 郑丞丞 - 迁就 柳程驭 - 柔软的壳 柳程驭 - 愿 柳程驭 - 别来无恙 李智颖 - 吃醋是因为太爱你 承桓 - 我以为 张沐溪 - 某个错觉 唐雅雯 - 月下与你 胡夏 - 爱情进化论 张若昀 - All Right 庄心妍 - 爱得像个小朋友 (慢版) 周笔畅 - 那么喜欢你 庄心妍 - 爱得像个小朋友 (快版) 刘惜君 - 不动声色 黄霄雲 - 你这样的人啊 郝艺泽 - 朵朵花 赵梓晴&马瑞琳&李思源 - 爷爷为我打月饼 丢火车乐队 - 心中的摇篮 龚芝怡 - 幸福不难 郑斌辉 - 跟着我一起 郑斌辉 - 初衷 郑可为 - 爱一直都在 邓碧源 - 责任 苏梽诚&魏妙如 - 爱不胜防 翁素英&蔡振雄 - 岛的儿子 翁素英&蔡振雄 - 亚答籽 石欣卉 - 满满的幸福 徐小凤 - 不夜城传奇 巫启贤 - 牛车水人家 姜鄂 - 铁警雄风 刘雪芳 - 惑 于台烟&郭崇仪 - 金兰结 徐菲 - 树叶的光 刘思涵&韩沐伯 - 不负旧时光 程响 - 许你 程响 - 江南多雨时 程响 - 当年的我们 卓文萱 - 永不消失的彩虹 成学迅 - 正义战争 孙盛希 - 少一点天份 东城卫 - 最后的光景 谭维维&GAI周延 - 爱难脱身 品冠&方烱彬 - 勿念勿忧 品冠 - 为你苏醒 黄龙辉 - 困 王瑜彤 - 困 朱哲伟 - 从心 魏妙如 - 有种爱 刘晋旭&苏梽诚&林倛玉 - 致胜一击 罗晋 - 告白 刘惜君 - 爱说了算 萧忆情Alex - 千秋来贺·龙国 河图 - 长生歌 李向哲 - 荒雪原·雪国 冥月 - 隐樵歌·轩辕国 佑可猫 - 心间客·炎国 HITA - 梦回星月·金国 黄格选 - 红墙绿瓦 邝星宇 - 故事 赵照 - 平凡的人 赵照 - 小院 周深 - 幸福里 殷悦 - 挥之不去 殷悦 - 挥之不去 Trance Remix 殷悦 - Hey! I Love You So 林子良 - 忘不了妳 林子良 - Wonderful 张清芳 - 你说好 我说好 苏永康 - 我只是想要幸福 曾恺玹 - 无声的旋律 关颖 - 星星的泪光 金池 - 反省 男子漢 - 我最挺你 吴思贤 - 陪你飞 吴思贤 - 怕笑声的人 吴思贤 - 别说 朱兴东 - 留给了时间 崔轼玄 - 我的四十年 好妹妹 - 日子 林芯仪 - 以后以后 品冠 - 现在,你在哪里? 井柏然 - 爱情掉在哪里 井柏然 - 梦的颜色 Alan柯有伦&林明祯 - My Only Love 钟易轩 - 早安,晚安 赵天宇 - 青春的滋味 王筝 - 你既然问了 张洢豪 - 安眠药 孟慧圆 - 那时的你 大壮 - 念旧 王大文 - 云霄飞车 许鹤缤 - 再见 杨彤 - 不告而别 李阳&路默依 - 不再孤单 崔子格&孙伯纶 - 一加一 颜志琳 - 倔 阎奕格 - 不敢 田馥甄 - 最暖的忧伤 张简君伟 - 雨后一起看彩虹 Tank&文慧如 - 爱的正负极 五月天 - 听不到 苏见信 (信) - 爱情的滋味 田馥甄 - 爱着爱着就永远 倪安东 - 我是你的 Popu Lady - 融化了 黎沸挥 - 好势无 罗美仪&黄振隆 - 每天为你唱歌 林宇中 - 7天追到你 东于哲 - 你看不到 李承铉 - OPEN YOUR EYES (Rock Ver.) 张予曦 - 亲爱的公主 张予曦 - 亲爱的公主 (Romantic Ver.) 丁爽 - 还爱吗 BY2 - BECAUSE OF YOU (Piano Ver.) BY2 - BECAUSE OF YOU (Guitar Ver.) 金池 - 人生若如初相见 郑罗茜 - 女人心 邹廷威 - 醉狂歌 孙怡 - 初见初恋 孙伯纶 - 锁你锁心 马如龙&林景雯 - 一次也好 管罄 - 保持距离 郑旭翔 - 抢救回忆 孙燕姿 - 不能和你一起 王七七 - 陪你漫步这个世界 巫启贤&巫咏欢HAPPY - 爸爸对女儿说 品冠 - 改口茶 于湉 - 大步走 爱上爱 沙宝亮 - 你我之间 杨非同 - 荒岛 崔子格 - 隐秘的温柔 亓航&张博涵&刘佳鑫&周子乐 - 生命的星空 黄暄婷 - 认真的爱 陈建宏 - 多一些少一些 邓碧源 - 岁月随想曲 黄龄 - 给他的信 鲁士郎 - 旅行笔记 马思纯 - 守候 邓伦 - 突然想爱你 焦迈奇&蔡维泽 - 坚强的理由 摩登兄弟刘宇宁 - 明明 刘胡轶 - 给她的信 贾玲 - 得意的笑 胡夏 - 等一生 李阳 - 我想和你走下去 包贝尔 - 包你满意 陈洁仪 - 一念尘埃 赵泳鑫 - 寒风 金池 - 前生缘 王野 - 故事 曹轩宾 - 君子兰 Judy - Just One 程响 - 安好再聚首 程响 - 希望的光 程响&曲比阿且 - 千里共婵娟 (对唱版) 方炯嘉 - 直觉反应 梁文音 - 寂寞之光 赵又廷 & COLOR(彩色拼涂) - 无赖正义 邹承恩 - 痞子与英雄 痞克四 - Hey Baby 痞克四 - 关于我们 The Every Brothers - All I Have To Do Is Dream 包贝尔 - 小样别跑 包贝尔&贾玲 - 快发红包 崔子格 - 风筝与鸟 丁当 - 时间告诉我的事 丁当 - 想恋一个爱 杜德伟 - 黄金比例 方炯嘉 - 直觉反应 (脸红版) 符致逸 - Good Morning, Hard City 胡冰卿 - 柳暗花明 胡冰卿 - 再一次凝望 梁文音 - 我们会再见 刘虹翎 - 祈许 品冠 - 门没锁 孙伯纶 - 恋恋不灭 王大文 - 有什么意义 王青 - 逍遥 五月天 - 垃圾车 (朋友版) 萧秉治 - 我无法不爱你 杨培安&刘虹翎 - 故事未完成 姚亦晴 - 墙 张勋杰 - 无可取代 卓文萱 - LaLaLa 爱情密码 卓文萱 - 疯了疯了 卓文萱 - 瘾 贾卿卿 - 爱无悔 阿达&LULU - 我说宝贝 曹寅 - 不只遗憾 曾予谦 - Hey, Gordan 曾之乔 - 泡沫美人鱼 曾之乔 - 钻石 常石磊 - 如果可以这样爱 陈司翰 - 挥霍浪漫 陈希郡 - 小孩 陈曦 - 姐妹间的吐槽 陈曦 - 遗憾成全 (陈曦版) 陈欣学 - Who You Are (English Version) 陈欣学 - Who You Are 陈欣学 - 微险 陈欣学 - 在就好了 陈永涛 - 赤胆凌云 崔轼玄 - 平淡生活里的刺 房东的猫 - 嘿,那个你 高嘉朗 - 活着 高山 - 抖 高胜美 - 归人 高胜美 - 还我柔情 高胜美 - 聚散俩依依 高胜美 - 情定望夫崖 高胜美 - 让心儿圈起来 高胜美 - 柔 高胜美 - 说一声再见 高胜美 - 月亮代表我的心 谷炫錞 - 给我爱 (中文演唱版) 谷炫錞 - 牵挂 (中文演唱版) 谷炫錞 - 阳光 (中文演唱版) 贺国丰&王雷山 - 神仙挡不住人想人 胡连馨 - 赤脚走进梦境 (胡连馨版) 胡莎莎 - 心念(哼鸣) 胡莎莎 - 在你身边 胡夏 - 我们的爱没有错 黄恩昱 - Shining on me 黄鸿升 - 村上的猫 黄鸿升 - 大确幸 黄淑惠 - 1234567我的朋友在哪里 (民谣版) 黄淑惠 - 1234567我的朋友在哪里 (抒情版) 黄淑惠 - 拥抱-AKI 黄淑惠 贾卿卿 - 相信爱情 贾卿卿 - 一万种可能 贾卿卿&邬拉 - 爱的迷雾 金玟岐 - 如果世界没有海 金玟岐 - 因为是你 阚立文 - 刺猬 阚立文 - 无衣 阚立文 - 谢谢你 对不起 康子奇 - 归宿 李佳璐 - 避风港 李佳璐 - 好心情 李龙 - 盾牌青春 李琦 - 最长的旅途 李千那 - 甜美的绳索 梁文音 - 给那年的自己 梁文音 - 还原 林凡Freya - 我们的故事只讲了一半 林子珂 - 致爱的人 马思超 - 日暮里 满翊琳 - 唤醒城市的人 满翊琳 - 前方 莫非定律乐团 - 不如简单 莫海婧 - 梦圆故乡 莫海婧&赵钶 - 梦想的光 莫海婧&赵钶 - 我们到不了彼岸 桑田 - 交错时空爱你 苏丹 - 黑猫牛奶 (独唱版) 苏醒AllenSu - 恋爱在流行 谭松韵 - 青春无恙 王大文 - 轨道 王大文 - 你和你的保丽龙心 王大文 - 其实你已经知道 王冠博 - Get Off 王力可 - 回家 王羚柔 - 说你爱我 王晴 - 手作时光 王铮亮&林凡Freya - 我想我愿意 魏晨 - 星辰大海是你 魏巡 - 幸福啊 温兆伦 - 乐逍遥 温兆伦 - 昨天的明天 萧亚轩 - 舞舞舞 谢佳见&吴哈哈 - 怕不够 秀兰玛雅 - 旧相片 秀兰玛雅 - 水当当 秀兰玛雅 - 这里离家有多远 徐洁儿 - 一天一点 杨开闻 - 学不会 杨宗纬 - 迎风飘散 殷桃&宋轶&赵今麦&夏若妍&胡连馨 - 遗憾成全 张群航 - 期待 张若昀 - 最长的旅途 张雪迎 - 被你拯救的我 张远 - 青春无恙 赵钶 - 带着梦飞翔 郑羽淇 - Don't Cry for Me 朱兴东 - 我依然爱你 庄鹃瑛 - So Far So Good 庄鹃瑛 - 单身动物园 Alan柯有伦&跟风超人 - power to drive Eric周兴哲 - 至少我还记得 Morrison 马仕钊 - 败给时间 Morrison 马仕钊 - 就这么错过 ØZI - 枷锁 π大星&刘冰蕊 - 下一次遇见 π大星&王宇豪 - 静静 崔子格 - 爱人 (剧场版) 大嘴巴 - 大告白 何德宏 - 赤脚走进梦境 (何德宏版) 和汇慧 - 两个人一支烟 吉克隽逸 - 归路 刘依纯 - 爱情的那边 刘媛 - 迷失的忧伤 品冠 - 开口 万潼&王今铎&王艺明&秦语&李小娇&白翔 - 快乐群发 吴建豪 - 属于你和我之间的事 吴建豪 - 下一首情歌 吴谨言 - 慢慢热 小贱 - 不像情歌 小贱 - 万一奥特曼打不赢小怪兽 小贱 - 我习惯了 小莫 - 勇士之歌 姚亦晴 - 预备浪漫 周笔畅 - 就这样吗 周深 - 曾经沧海 卓文萱&黄鸿升 - 心爱的 大张伟 - 流着眼泪唱起歌 李芳 - 海底两万米 黄鸿升 - 千分之一 林峯 - On My Way 毕夏 - 致亲爱的我们 阿云嘎 - 多少 胡夏 - 炉火 毕雯珺&姜珮瑶 - 戒断反应 (对唱版) 毕雯珺 - 戒断反应 (深情版) 曹其浪(GANNIX) - 戒断反应 周深 - 时间之海 侯明昊&王天若 - 周天之变 Sunnee杨芸晴 - 星河归途 CORSAK胡梦周&张子薇&刘文君 - 天外来客不悲不愁金刚之身不死不休 21Future - 万人之上异人之下 林欣彤 - 空中恋人 黄景瑜&钟楚曦 - 从未分离过 黄景瑜 - 渴望 黄景瑜 - 只道是寻常 陈泫孝(大泫) - 做你的后背 肖战&谭维维 - 我们曾经在一起 汪苏泷 - 兄弟号角 康子奇 - 关于你 金语杉 - 十五从军征 许鹤缤 - 短歌行 鞠红川 - 祈愿 许鹤缤 - 风帆 周深 - 和光同尘 黑Girl - Hello爱情风 棒棒堂&黑Girl - 黑糖秀 棒棒堂 - 爱情玛奇朵 棒棒堂&黑Girl - 苦茶 棒棒堂 - 大猪头 许艺娜 - 雾里的小花 许艺娜 - 枯叶蝶 李晟 - 错过 张睿&刘惜君 - 爱在天长地久 张睿 - 锁住浪漫 张睿 - 雨中的红玫瑰 张睿 - 花非花雾非雾 张睿 - 美丽的春天 张睿 - 童年小镇 张睿 - 恨我爱你 张睿 - 挥洒青春 张睿 - 允许我爱你 刘惜君 - 喜欢 胡夏 - 不相忘 房东的猫 - 拾光 吴宣仪 - 不期而遇 刘惜君 - 我遇见 CORSAK胡梦周 - 守护你 金玟岐 - 向光 张羽涵Leezi - Not the one you know 张渝 - 风雨中的你 周深 - I See Us 金瀚 - 缘因我 金池&孙伯纶 - 白首相依 李琦 - 来生 崔子格 - 玉烛宝典 唐嫣&罗晋 - 天赋 陆虎 - 战士 白鹿&许凯 - 入梦 董力 - 烈火 王一哲 - 毒药 吴佳怡 - 月光探戈 胡夏 - 蓦然 毛不易 - 太阳月亮 木头 - 复乐园 张含韵 - 双花 宋乐谦 - It's You 阿肆 - 暧昧的距离 汪睿&魏新人 - When I Look in Your Eyes 李一桐&金晨 - 谈心 廖女士 - Oh My Friend 张靓颖 - 她 刘祖君 - Shade of Time 刘祖君 - Love You Anyway 陈慧琳 - 心理大师 陆宇鹏 - 小秘密 王笠人 - 小秘密 杨紫&王嘉&菅纫姿 - 心理大师 杨紫&吴牧野 - 花房咖啡厅 房东的猫 - 是对爱的渴望 刘凤瑶 - 心理大师 迪丽热巴 - 舍不得 迪丽热巴 - 漂亮的在一起 胡夏 - 你好灰姑娘 李溪芮&张彬彬 - 爱得起 萧敬腾 - 爱无反顾 萧敬腾 - 爱无反顾 (大气抒情版) 李佳薇 - 最好的幸福 王诗安 - 桃花结 李佳薇 - 别来无恙 吴克群 - 像傻子般爱着 萨吉 - 我身边的海 数字人202 - 互为彼此的那阵风 徐梦洁 - 一万件想做的事情 印子月 - 互为彼此的那阵风 关晓彤 - 如果时间有按钮 张杰 - 真相 (国语) 张杰 - I See the Lights 韩庚 - 侬还好伐 陆虎 - 别 周深 - 传家 黄义达 - 我说 陈粒 - 时间都知道 曾昭玮 - 此刻 唐嫣 - 我想找你 邱胜翊 - 窗 阎奕格 - 我爱着就好 邱胜翊 - 爱正在发生 辰亦儒 - 万人迷不迷 曾之乔 - 猜猜看 Karencici - Close To You 陈翔 - 问世间 陈晓&陈妍希 - 你我 陈晓&刘忻 - 十六年 张馨予 - 问世间 雷琛瑜 - 悠悠我心 赵丽颖 - 我从来不存在 (玉无心版) 赵丽颖&许志安 - 乱世俱灭 蒋卓嘉 - 雨还下不停 曾咏欣 - 心的构造 周笔畅 - 我选择喜欢你 吴奇隆&许志安 - 宿敌 叶祖新&杨世瀚&黄世超&张思帆 - 我就是我 余玥 - 我从来不存在 (屠梦版) 多亮 - 诉衷情 多亮 - 诉衷情 (插曲版) 金志文 - 我们的爱 袁雨桢&李宇琪&戴萌 - 再一次拥抱 童蕾 - 再一次拥抱 崔子格 - 再一次拥抱 齐秦 - 问秋风 萨吉 - 我愿意 周深 - 在意 关喆 - 以为 黄景瑜 - 如果说·还记得 林彦俊&薛黛霏 - 盛夏 林彦俊 - 最好的安排 师铭泽K-noor&施展 - 接招吧 太一 - 寒暄 夏瀚宇 - 如果爱了解 牛奶咖啡 - 遇见你 刘惜君 - 线 张阳阳 - 什么样的爱情 Jeffrey董又霖 - 开始想你了 李泰 - 多久不见 金池 - 爱过了站 魏大勋 - 像你这样的女孩 胡夏 - 他比我更适合 李泰 - 冷战 李泰 - 屋顶的蓝天 唐艺昕 - 灯 TFBOYS - 样(YOUNG) 周深 - 爱的序曲 (人声哼鸣版本) 周深 - 小舍得 周深 - 小舍得 (编曲版) 周深 - 小舍得 (钢琴版) 刘惜君 - 我愿你不留遗憾 王栎鑫 - 敬我们 王子异 - 灿烂之夏 刘惜君 - 时光慢旅 汪苏泷 - 闪耀 汪明荃 - 伴你过一世 汪明荃 - 面对山青水秀 汪明荃 - 万水千山总是情 孟佳&徐均朔 - 心情遥控器 阿悄&朱元冰 - 因为遇见你 毕夏 - 弹给姑娘的吉他 (爱情版) 毕夏 - 我错过你错过我 陈乃荣 - 听见 胡夏 - 不说 黄霄雲 - 冥冥 雷婷 - 蓝月亮 瓦其依合 - 不要怕 (彝族语) 王赫野 - For U 毕夏 - 弹给姑娘的吉他 (姐妹版) 毕夏 - 弹给姑娘的吉他 (事业版) 和汇慧 - 爱 刘瀚聪 - 弹给姑娘的吉他 (爱情版) 刘瀚聪 - 弹给姑娘的吉他 (姐妹版) 刘瀚聪 - 弹给姑娘的吉他 (事业版) 刘瀚聪 - 一见钟情 希林娜依高 - 云的味道 张含韵 - 照顾自己 张学友 - 爱是永恒 (粤语) 周深 - 过客 胡歌 - 盛开 毕书尽 - 无畏的明天 李宏毅 - 未完成的瞬间 铁竹堂&林依晨 - Be Your Superman 邵雨薇 - 星月 阿云嘎 - 秣马 曾婕Joey.Z - 幸福的终点 多亮 - 独白心声 A2A - 前世有约 顾晴 - 我们的生活是一条河 雷佳 - 时间走过 王凯 - 大江大河 刘凯 - 英雄无名 阿云嘎 - 当代诗人 吉克隽逸 - 现在的我 刘凤瑶 - 都市沙漠 孙露 - 路过的幸福 孙露 - 你在哪里 孙露 - 何必在一起 雷佳 - 花儿一唱天下春 李宇欣&宁夏小燕子合唱团 - 渴死了嫑喝凉水 黄柏杰 - 再爱你一次 金丽婷 - 再爱你一次 王丽坤 - 终于 佟大为 - 想 金池 - 怕了 庄心妍 - 对的人 巴图&常思思 - 位置 陶晶莹 - 叶枯过 朱杰 - 怎么办 黄晓明 - 缘 沈依莎 - 时过境迁 林昕阳 - 爱是信仰 林宇中 - 至少爱过 谭松韵 - 亲爱的 彭雅琦 - 在一起 姜潮 - 时光的夏天 王卓 - 春天 王卓 - 你的珍贵 姚贝娜 - 如果没有你 周晓鸥 - 拥抱 何洁 - 爱不需要理由 张恺彤 - 这歌声 周晋进 - 回心转意 金润吉 - 你与我同在 萨吉 - 我们之间 周深 - 借给我一盒火柴 于文文 - 无界 龚子婕JessieG - 春之记忆 马上又 - 别来无恙 刘维 - 爱的光芒 陆毅 - 云天外 杨颖 - 绿罗裙 杜淳 - 云天外 李宇春 - 丝萝 徐熙媛&沈建宏 - 黑猫与牛奶 徐熙媛 - 钻石 何润东 - 我记得我爱过 (轻快版) 何润东 - 假面 海铃 - 千秋结 李行亮 - 思美人兮 方圆 - 橘颂 宁心&李雨轩 - 惜往事 刘智晗 - 野有蔓草 金丽婷 - 影子 王铮亮 - 爱,燃烧 李沁 - 抱紧我 黄轩 - 奔跑的蜗牛 谭维维 - 我亲爱的 谭维维 - Chéri 魏大勋 - 无论 徐云霄 - 有些已经不重要但很想说的话(有些话) 徐云霄 - 指纹 徐云霄 - 找到你 孟楠 - 真心话 Rita黄汐源 - 超级记忆 黄宗泽 - 听风啸 戚薇 - 陪你天涯 张翰 - 风之诺言 雨木 - 青山高 陈楚生 - 不如怀念 阿悄 - 十字诀 金玟岐 - 直到遇见你 田跃君 - 江湖少年行 樊凡 - 给悲伤机会 樊凡 - 相见不如怀念 樊凡 - 没得选择 樊凡 - 我的心是暖暖的 樊凡 - 守护 樊凡 - 做自己的英雄 王倩一 - 拿什么可能 樊凡 - 转身说爱你 王倩一 - 习惯 樊凡 - 拿什么可能 樊凡 - 是我 樊凡 - 不要就这样离开我 樊凡 - 思念不走 樊凡 - 不勉强 任重 - 原谅我好想她 蔡翊昇 - 明明知道 范倪Liu - 飘摇 戴羽彤 - 你的约定 张赫煊 - 策马高歌 司南 - 星辰如眸 钟祺 - 藏在世界的你 朱兴东&郑羽淇 - 非你不可 曹寅 - 行星 崔子格 - 明明是爱情 乔欣 - 爱清晰 诺金·拉姆 - 香巴拉 彭扎西 - 酒歌 刘牧 - 旅行的梦想家 刘牧 - 想起了你 董冬冬 - 胭脂 赵丽颖 - 心念 汪苏泷 - 爱让我勇敢 DISH - 偶然 (女声哼唱版) Melodia_K - Canon Melodia_K - Forget About Romance (女声版) Melodia_K - 寂寞影院 阿悄 - 致爱人 陈彦妃 - 创可贴 范晓萱 - 幸福合作社 付辛博 - 分我一半的眼泪 吉杰 - 爱神爱神在哪里 金池 - 好过纠缠 林依晨 - 你 (弦乐版) 林依晨 - 你 刘明辉 - 燃夜 刘明辉 - 最好 马天宇 - 落花 茅小勇 - 前尘 尚雯婕 - A La Claire Fontaine 田跃君 - 一纸江山 童可可 - 缺席 玄觞 - 何时了 俞灏明 - 我和春天有个约会 袁姗姗 - 我和春天有个约会2 张含韵 - 爱神总是敲错门 张恺彤 - 爱在春天 赵露思 - 恋爱脑少女 郑元畅 - 忠于原味 周晋进 - Forget About Romance (男声版) 周晋进 - 情谊似酒浓 周晋进 _ 励敏 - 恋爱冲浪板 邓伦&阿兰 - 等爱 王铮亮 - 情若尘埃 刘端端 - 想起 陈祉希 - 玫瑰盔甲 许明明 - 我不 江映蓉 - 星星坠落 张远 - 倾诉 孟佳 - 你懂我 我懂你 王晰 - 隐秘的心 徐艺洋 - 如梦如醉 杨馥伊 - 心窗 张远 - 若有似无 张远 - 暗涌 (男声版) MiMi李紫婷 - 暗涌 (女声版) 孟佳 - 暖光 聚来提 - 两难 房东的猫 - 远在咫尺的爱 孙子涵 - 两人份 魏晨 - 烈火神盾 鞠婧祎 - Fighting Day 贺一航 - 燃烧到最后一刻 孙露 - 回不去 吴奇 - 一个人走 侯志斌 - 等待 陆虎 - 时间 陆虎 - 传承 张楠 - 鱼在藻胜利之歌 摩登兄弟刘宇宁 - 愿重逢 刘人语 - 明月秋千 刘也&井胧 - 见你生欢 井迪儿 - 锦瑟 雷佳 - 面朝大海 常思思 - 把爱坚守 陈依冉&李香馨&王雁芸&高连岳&单喻龙&唐 - 开怀大叫 陈依冉&李香馨&王雁芸&高连岳&单喻龙&唐 - 吃饭的逻辑 阿云嘎&张含韵 - 海与灯塔 朱文婷 - 梦想成真 任艺飞JERRY - 我们的我们 闫旭&丁酉酉 - 爱情这杯酒谁喝都得醉 朱克 - 信仰 刘牧 - 麦香依旧 金志文 - 有光来过 许靖韵 - 追心 摩登兄弟刘宇宁 - 爱了很久 张远 - 你的一切与我有关 周庭伊 - 拥抱 于湉 - 为你存在 焦迈奇 - 山月 宋茜&欧豪 - 练习当朋友 傻子与白痴 - 冬五环 (TV Version) 田雷 - 陪你长大 田雷 - 找找爱 樊凡 - 非我不可 樊凡 - 逆向爱情 胡夏 - 追梦时光 白敬亭&许魏洲 - 荣耀乒乓 白敬亭 - 一左一右 万国鹏 - 从前的我 UNINE - 青春如你 GAI周延 - 我们十年 翟潇闻 - 静静地 李俊毅JUNI - 静静地 翟潇闻 - 青春旅途 李俊毅JUNI - 心若向阳 戴燕妮 - 心愿 戴燕妮 - 最好的时光 小樊 - 拥抱 金玟岐 - 蜗牛的愿望 邢昭林&梁洁 - 当真 李俊毅JUNI - 哎呀爱 印子月 - 蜗牛的愿望 缪艺豪 - 如梦时光 盛一伦 - 而你 王铭铎 - 封藏的信笺 摩登兄弟 - 恋语1910 潘辰 - 十里芬芳 刘凤瑶 - 归缘 刘凤瑶 - 十里芬芳 樊凡&徐梵溪 - 快乐久久 樊凡 - 背影 樊凡 - 换向 徐梵溪 - 燃烧翅膀 姚笛 - 很久 陈司翰 - 繁华梦 (国语) 范玮琪 - 秋千 (国语) 徐洁儿 - 错误的相遇 (国语) 徐洁儿 - 一天一点 (国语) 马伯骞&Emma Dumont - 找到你You're All I Need 戴佩妮 - 误解 廖俊涛 - 自然而然 吴青峰 - 蜂鸟 Mr. Miss - 那点情话 Mr. Miss - You Were Meant For Me 樊凡 - 回味 樊凡 - 徘徊 姚笛 - 认了 姚笛 - 一首情歌 任重 - 时间的漩涡 任重 - 一首情歌 赵祺 - Be Your Man 朱克 - 听 崔子格 - 被爱言中 崔子格 - 心伴 侯志斌 - 当我想起你 侯志斌 - 听 马思超 - 原本 陈楚生 - 孤独的狮子 陈希郡 - 玩世不恭 林子珂&记忆力惊人的鱼 - 唇语 林子珂 - 小小宇宙 杨彤 - 原本 刘惜君 - 独一无二的自己 金润吉 - 许久以后的爱情 莫海婧 - 霓虹灯 莫海婧 - 姐妹 王子菡 - 风波 王子菡 - 继续奔跑 展展 - 和你有关 高嘉朗 - 漩涡 汪睿 - 因为是你 张鑫 - 你是 贾乃亮 - 讨喜 李小璐&贾乃亮 - 多面娇娃 金美辰 - 闪光如你 方逸伦 - 装下两个人 李向哲 - 穿过 叶禹含 - 一点点 印子月&YoungG - 拜托拜托 印子月 - 风的期待 阿兰 - 紫罗兰 戴燕妮 - 追爱 贺一航 - 用心爱你 彭席彦 - 别转身 刘忻 - 坠落 袁东方 - 门 艾美丽 - 姥姥说 叶麒圣 - 回家 冷松 - 回家 代千 - 回家 莫龙丹 - 留下 徐嘉苇 - 裘马都 许思思 - 半生梦 董晴 - 半生梦 萱萱 - 忽而那年 王航 - 钢的影 沙宝亮 - 答案不在这里 费启鸣 - 无名 王晰&尹姝贻 - 往前 潘粤明&张一山 - 平凡的年代 尹姝贻 - 你是谁 樊凡 - 等不到的爱 樊凡 - 搜寻你的名字 樊凡 - 忘不掉的海 樊凡 - 不痛 李慧珍 - 习惯 文章 - 等不到的爱 谢安琪 - 诸神混乱 胡鸿钧 - 天地不容 何雁诗 - The Only One 高唱 - 最初的时光 阿云嘎 - 野草茫茫 王凯 - 听雨来过 张赫煊 - 一起闯荡的日子 张磊 - 余生许你 秦杉 - 醉梦洲 肖君妍 - 花前月下 李梦琦 - 来回 王睿 - 轻轻 强东玥 - 晚安 吉扬柳 - 踏破阑珊亦是你 周士原 - 剪窗 吉扬柳 - 不可救药 刘奕畅&李梦琦 - 执年 王乙淼 - 你的眼睛 王乙淼 - 时光无恙 杨丁子 - 恋 朱克 - 沸腾人生 范玮琪&杨丞琳 - 有你真好 (国语) 范玮琪 - 启程 (国语) 杨丞琳 - 说再见 腾格尔 - 爱我就别想太多 罗中凯 - 约定 王晰 - 爱我吗 王奕丁 - 割舍 丁丁&罗中凯 - 太阳升起 韦礼安 - 在你身边 谢沛恩 - 死心眼 谢沛恩 - 反正我是爱了 杨蒨时 - 命中要爱 杨祐宁 - 空荡 吴汶芳 - 孤独的总和 吴汶芳 - 我在哪里 Frandé法兰黛乐团 - 闪电 常石磊 - 爱如潮涌 丁酉酉 - 爱情这杯酒谁喝都得醉 丁酉酉 - 女人的天 韩铠伊 - 赶月亮 刘恺威 - 抓不住的温柔 王苏恒 - 忽而那年 (回忆版) 闫旭 - 爱情这杯酒谁喝都得醉 Lene Marlin - Disguise 陈烨菲 - 梦语难言 陈烨菲&佳灏 - 梦语难言 韩磊&陈倩倩 - 彭城 (合唱版) 何文锐 - 爱谁谁 金池 - 何为仙 田丹 - 六月画沙 田丹 - 执手凉薄 王铭铎 - 三世缘生三世叹 徐子崴 - 转眼一生转身一世 白娜 - 王子晚安 张婧 - 爱自己最快乐 BY2 - 有没有 BY2 - 一样爱着你 谭维维 - 与爱情无关 杨幂 - 她他 张彬彬&李溪芮 - 天梯 张云龙 - 青春不留白 余文乐 - 第一次爱情 陈志朋 - 青桂 陈志朋 - 爱过不恨 樊凡 - 放过 樊凡 - 偶尔 金丽婷 - 黎明在路上 (有氧版) 金丽婷 - 黎明在路上 (忘忧版) 金丽婷 - 时光有你 彭玮瀚 - 谁不曾这样 彭玮瀚 - 胡须把眼泪挡在胸膛之外 石杨 - 未来 沈依莎 - 完美冒险 曹轩宾 - 纠结 曹轩宾 - 轻轻 BY2 - 乌鸦嘴 汪苏泷 - 幸福加油 汪苏泷 - 严小姐 李尚谦 - 大理 李尚谦 - 哥哥 张梦莎 - 你啊 王野 - 永不退缩 王紫逸&张宁江&宣言 - 战友 金丽婷&彭玮瀚 - 放下 金丽婷 - 四海为家 多亮 - 清平愿 黄绮珊 - 清平愿 黄雅莉 - 心跳着 徐良 - 还是想念 毕书尽 - 极光 何洁&苏醒AllenSu - 彼岸花 陆昱霖 - 爱你所有 陆昱霖 - 怎么办 李行亮 - 很爱很爱的 李行亮 - 特别想念你 曹寅 - 鹿回头 刘庭羽 - 告别 飞轮海 - Mr_Perfect 汪东城 - 完美心跳 汪东城 - 假装我们没爱过 倪安东 - 然后 孙自佑 - 在没有你的世界 Olivia Ong - 明明 郑雅文 - 寂寞旅途 樊凡 - 如果没以后 樊凡 - Angel 姚笛 - Angel 华语群星 - 透明的 阎奕格 - 凝视 辰亦儒 - 都祝福 邱翊橙&邱胜翊 - 帅过头 苏见信 (信) - 青春无敌 宇珊 - 爱的积分 动力火车 - 来真的 樊凡&王璐瑶 - 风的尽头 樊凡 - 我真的无法放弃 樊凡 - 循环记忆 樊凡 - 在你之后 任重 - 幸福的错觉 苏丁琦 - 遗憾 玲珑 - 如果 欧恒 - 如果怀念你 欧恒 - 遗憾 曹雪&曹扬 - 爸爸快长大 麻辣女兵 - 共青团员之歌 齐豫 - You Can't Say 青乐组合 - 人声片尾歌(挽留) 青乐组合 - 挽留 苏盈之&陈晓东 - 幸福满满 Fuying & Sam - 吻的温度 窦智孔 - 难道 杜德伟 - Kiss 杜德伟 - Sugar Sugar 李佳璐 - 爱自由 李佳璐 - 不见不散 林凡Freya - 岁月这把刀 林凡Freya & 符致逸 - 套不住 罗美玲 - 不懂寂寞 罗美玲 - 我在你身旁 (心情思念版) 罗美玲 - 我在你身旁 苏盈之 - 别客气 苏盈之 - 找麻烦 孙盛希 - 是爱还是陪伴 王洋 - 沐阳 王洋 - 年轻就是不一样 葳宣&葳安 - 闪亮的梦想 BY2&萧秉治 - 藏不住 葳宣&葳安 - Missing You All The Time 姚贝娜 - 相信爱很美 刘思涵 - 没有找到你 任容萱 - 爱不爱都寂寞 裘芝 - 大声说爱你 陶嫚曼 - 当我想著你的时候 裘芝 - I Don't Wanna Go 刘笑歌 - 我爱我的村 刘流 - 大村官 范玮琪 - 动物森林 汪琨 - 累 贺国丰 - 神仙挡不住人想人 (TV Version) 樊凡 - 约定的永远 樊凡 - 你的痛我明白的 樊凡 - 你是真不同 张萌 - 浅情歌 欧恒 - 锁 吕雯 - 情思 吕雯 - 锁 吕雯 - 大梦烟云 高娜恩 - 梦想女神 张立冬 - 美梦成真 SARA - 微小的失落 冷漠 - 天堂的爱情 冷漠 - 我们的纪念 刘佳 - 我想和你谈谈 樊凡 - 还一个拥抱给我 樊凡 - 开始下雨了 樊凡 - 你在哪里 袁姗姗 - 承诺 袁姗姗&韩栋 - 无泪 Kent王健 - 第十八封信 顾峰 - 放开 顾峰 - 留在你身边 顾峰 - Baby I Love You 顾峰 - 你爱的不是我 斯琴高丽 - 解雇 斯琴高丽&顾峰 - 每天都精彩 斯琴高丽 - 穿越迷雾 斯琴高丽 - 我最爱的一首歌 斯琴高丽 - 决堤 斯琴高丽 - 天使之痛 袁成杰 - 快乐不过是 戚薇&佟丽娅&高露 - 爱情没什么道理 陈楚生 - 爱情是否依然 昔米 - 忧伤倒数 窦智孔 - 樱花的秘密 许书豪 - 不能说的爱你 郑元畅&彭于晏&伊藤千晃 - Give Me Love 蜂蜜幸运草 - 幸运草的祝福 简婕&简廷芮 - 一起遨游 李国毅 - Be My King 小宇-宋念宇 - 想你的习惯 陈科妤 - THE WALK 向前走 李玖哲 - 地平线 朱哲琴 - 拉萨谣 张一筑 - 你知不知道 张一筑 - 时差 (张一筑版) 阿云嘎 - 要告诉你一件事情 陈冰 - 隐没在戈壁 陈迪 - 亲人知己 陈慧琳 - 烦恼配方 陈零九 - 你他我
昨天 20:00 音乐达人
HD 1080p from U-NEXT. Japanese subtitles added. We are planning to upload all U-NEXT Dramas and Movies, we need your Support! Support Us Ali (Zhifubao / QR code): https://i.ibb.co/FWV2ggm/1660626347125.png PayPalMe: https://www.paypal.com/paypalme/sakuragikenji BTC (USDT): 19y5NF6voysif7PeJLv86Hf186ZS1i4rwu ETH: 0x807B4eec355Cfa65500BeE65A992a9a0d8432697 LTC: LUC2dTQkte7muv5oUUuRNJimLJvi9pgZUQ General Unique ID : 294059443336087688086902863281733293023 (0xDD39C9EA8AD3588262B8523C850CD3DF) Complete name : 25.ji.Akasaka.de.EP05.1080p.U-NEXT.WEB-DL.AAC2.0.H.264-MagicStar.mkv Format : Matroska Format version : Version 4 File size : 717 MiB Duration : 23 min 54 s Overall bit rate : 4 194 kb/s Frame rate : 23.976 FPS Encoded date : 2024-05-16 16:54:18 UTC Writing application : mkvmerge v50.0.0 ('Awakenings') 64-bit Writing library : libebml v1.4.0 + libmatroska v1.6.2 Cover : Yes Attachments : cover.png Video ID : 1 Format : AVC Format/Info : Advanced Video Codec Format profile : Main@L4 Format settings : CABAC / 3 Ref Frames Format settings, CABAC : Yes Format settings, Reference fra : 3 frames Codec ID : V_MPEG4/ISO/AVC Duration : 23 min 54 s Bit rate : 4 052 kb/s Width : 1 920 pixels Height : 1 080 pixels Display aspect ratio : 16:9 Frame rate mode : Constant Frame rate : 23.976 (24000/1001) FPS Color space : YUV Chroma subsampling : 4:2:0 Bit depth : 8 bits Scan type : Progressive Bits/(Pixel*Frame) : 0.082 Stream size : 692 MiB (96%) Writing library : x264 core 164 Encoding settings : cabac=1 / ref=3 / deblock=1:-1:-1 / analyse=0x1:0x111 / me=hex / subme=4 / psy=1 / psy_rd=1.00:0.15 / mixed_ref=0 / me_range=16 / chroma_me=1 / trellis=1 / 8x8dct=0 / cqm=0 / deadzone=21,11 / fast_pskip=1 / chroma_qp_offset=-1 / threads=9 / lookahead_threads=2 / sliced_threads=0 / nr=0 / decimate=1 / interlaced=0 / bluray_compat=0 / constrained_intra=0 / bframes=2 / b_pyramid=0 / b_adapt=2 / b_bias=0 / direct=3 / weightb=1 / open_gop=0 / weightp=1 / keyint=48 / keyint_min=25 / scenecut=0 / intra_refresh=0 / rc_lookahead=20 / rc=2pass / mbtree=1 / bitrate=4052 / ratetol=1.0 / qcomp=0.60 / qpmin=0 / qpmax=69 / qpstep=4 / cplxblur=20.0 / qblur=0.5 / vbv_maxrate=8050 / vbv_bufsize=8050 / nal_hrd=none / filler=0 / ip_ratio=1.40 / aq=1:1.00 Language : English Default : Yes Forced : No Audio ID : 2 Format : AAC LC Format/Info : Advanced Audio Codec Low Complexity Codec ID : A_AAC-2 Duration : 23 min 54 s Bit rate : 128 kb/s Channel(s) : 2 channels Channel layout : L R Sampling rate : 48.0 kHz Frame rate : 46.875 FPS (1024 SPF) Compression mode : Lossy Stream size : 21.9 MiB (3%) Title : 日本語 [オリジナル] Language : Japanese Default : Yes Forced : No
昨天 08:00 日剧更新了
HD 1080p from DMM TV. We are planning to upload all DMM TV Dramas and Movies, we need your Support! Support Us Ali (Zhifubao / QR code): https://i.ibb.co/FWV2ggm/1660626347125.png PayPalMe: https://www.paypal.com/paypalme/sakuragikenji BTC (USDT): 19y5NF6voysif7PeJLv86Hf186ZS1i4rwu ETH: 0x807B4eec355Cfa65500BeE65A992a9a0d8432697 LTC: LUC2dTQkte7muv5oUUuRNJimLJvi9pgZUQ General Unique ID : 54512596106943287863333618095441235540 (0x2902BE7E92ED23FD124077A2E3E6CE54) Complete name : Shanai.Shokeinin.Kanojo.wa.Teki.wo.Keshiteiku.EP05.1080p.DMM-TV.WEB-DL.AAC2.0.H.264.V0-MagicStar.mkv Format : Matroska Format version : Version 4 File size : 740 MiB Duration : 24 min 3 s Overall bit rate : 4 303 kb/s Frame rate : 29.970 FPS Encoded date : 2024-05-16 16:36:42 UTC Writing application : mkvmerge v50.0.0 ('Awakenings') 64-bit Writing library : libebml v1.4.0 + libmatroska v1.6.2 Video ID : 1 Format : AVC Format/Info : Advanced Video Codec Format profile : High@L4 Format settings : CABAC / 1 Ref Frames Format settings, CABAC : Yes Format settings, Reference fra : 1 frame Format settings, GOP : M=1, N=24 Codec ID : V_MPEG4/ISO/AVC Duration : 24 min 3 s Bit rate mode : Constant Bit rate : 4 113 kb/s Width : 1 920 pixels Height : 1 080 pixels Display aspect ratio : 16:9 Frame rate mode : Constant Frame rate : 29.970 (29970/1000) FPS Original frame rate : 29.970 (30000/1001) FPS Color space : YUV Chroma subsampling : 4:2:0 Bit depth : 8 bits Scan type : Progressive Bits/(Pixel*Frame) : 0.066 Stream size : 696 MiB (94%) Default : Yes Forced : No Color range : Limited Color primaries : BT.709 Transfer characteristics : BT.709 Matrix coefficients : BT.709 Audio ID : 2 Format : AAC LC Format/Info : Advanced Audio Codec Low Complexity Codec ID : A_AAC-2 Duration : 24 min 3 s Bit rate : 256 kb/s Channel(s) : 2 channels Channel layout : L R Sampling rate : 48.0 kHz Frame rate : 46.875 FPS (1024 SPF) Compression mode : Lossy Stream size : 44.0 MiB (6%) Title : 日本語 [オリジナル] Language : Japanese Default : Yes Forced : No
昨天 08:00 日剧更新了
HD 1080p from HULU JAPAN. Japanese subtitles added. Support Us Ali (Zhifubao / QR code): https://i.ibb.co/FWV2ggm/1660626347125.png PayPalMe: https://www.paypal.com/paypalme/sakuragikenji BTC (USDT): 19y5NF6voysif7PeJLv86Hf186ZS1i4rwu ETH: 0x807B4eec355Cfa65500BeE65A992a9a0d8432697 LTC: LUC2dTQkte7muv5oUUuRNJimLJvi9pgZUQ General Unique ID : 243603291795599859851330151033826329949 (0xB74449947DBA3BA7F6D1F7F218BE455D) Complete name : Yakusoku.16.nenme.no.Shinjitsu.EP06.1080p.HULU.WEB-DL.AAC2.0.H.264-MagicStar.mkv Format : Matroska Format version : Version 4 File size : 1.87 GiB Duration : 43 min 2 s Overall bit rate : 6 233 kb/s Frame rate : 29.970 FPS Encoded date : 2024-05-16 16:09:38 UTC Writing application : mkvmerge v50.0.0 ('Awakenings') 64-bit Writing library : libebml v1.4.0 + libmatroska v1.6.2 Cover : Yes Attachments : cover.png Video ID : 1 Format : AVC Format/Info : Advanced Video Codec Format profile : High@L4 Format settings : CABAC / 4 Ref Frames Format settings, CABAC : Yes Format settings, Reference fra : 4 frames Codec ID : V_MPEG4/ISO/AVC Duration : 43 min 2 s Bit rate : 5 977 kb/s Width : 1 920 pixels Height : 1 080 pixels Display aspect ratio : 16:9 Frame rate mode : Constant Frame rate : 29.970 (29970/1000) FPS Original frame rate : 29.970 (30000/1001) FPS Color space : YUV Chroma subsampling : 4:2:0 Bit depth : 8 bits Scan type : Progressive Bits/(Pixel*Frame) : 0.096 Stream size : 1.80 GiB (96%) Default : Yes Forced : No Color range : Limited Color primaries : BT.709 Transfer characteristics : BT.709 Matrix coefficients : BT.709 Audio ID : 2 Format : AAC LC Format/Info : Advanced Audio Codec Low Complexity Codec ID : A_AAC-2 Duration : 43 min 2 s Bit rate : 253 kb/s Channel(s) : 2 channels Channel layout : L R Sampling rate : 48.0 kHz Frame rate : 46.875 FPS (1024 SPF) Compression mode : Lossy Stream size : 78.0 MiB (4%) Title : 日本語 [オリジナル] Language : Japanese Default : Yes Forced : No
昨天 08:00 日剧更新了
HD 1080p from FOD. Japanese subtitles added. Support Us Ali (Zhifubao / QR code): https://i.ibb.co/FWV2ggm/1660626347125.png PayPalMe: https://www.paypal.com/paypalme/sakuragikenji BTC (USDT): 19y5NF6voysif7PeJLv86Hf186ZS1i4rwu ETH: 0x807B4eec355Cfa65500BeE65A992a9a0d8432697 LTC: LUC2dTQkte7muv5oUUuRNJimLJvi9pgZUQ General Unique ID : 244017864086662274397740067063819461812 (0xB794219274BEC0D02DFB31EBF440E4B4) Complete name : Re.Revenge.Yokubou.no.Hate.ni.EP06.1080p.FOD.WEB-DL.AAC2.0.H.264-MagicStar.mkv Format : Matroska Format version : Version 4 File size : 858 MiB Duration : 46 min 25 s Overall bit rate mode : Variable Overall bit rate : 2 584 kb/s Frame rate : 29.970 FPS Encoded date : 2024-05-16 14:17:00 UTC Writing application : mkvmerge v50.0.0 ('Awakenings') 64-bit Writing library : libebml v1.4.0 + libmatroska v1.6.2 Video ID : 1 Format : AVC Format/Info : Advanced Video Codec Format profile : [email protected] Format settings : CABAC / 2 Ref Frames Format settings, CABAC : Yes Format settings, Reference fra : 2 frames Codec ID : V_MPEG4/ISO/AVC Duration : 46 min 24 s Bit rate mode : Variable Bit rate : 2 390 kb/s Maximum bit rate : 15.0 Mb/s Width : 1 920 pixels Height : 1 080 pixels Display aspect ratio : 16:9 Frame rate mode : Constant Frame rate : 29.970 (29970/1000) FPS Original frame rate : 29.970 (30000/1001) FPS Color space : YUV Chroma subsampling : 4:2:0 Bit depth : 8 bits Scan type : Progressive Bits/(Pixel*Frame) : 0.038 Stream size : 793 MiB (92%) Default : Yes Forced : No Audio ID : 2 Format : AAC LC Format/Info : Advanced Audio Codec Low Complexity Codec ID : A_AAC-2 Duration : 46 min 25 s Bit rate : 192 kb/s Channel(s) : 2 channels Channel layout : L R Sampling rate : 48.0 kHz Frame rate : 46.875 FPS (1024 SPF) Compression mode : Lossy Stream size : 63.7 MiB (7%) Title : 日本語 [オリジナル] Language : Japanese Default : Yes Forced : No
昨天 02:00 日剧更新了
HD 1080p from TVer. Japanese subtitles added. Audio description. General Unique ID : 191497374557018629657733567200384239659 (0x90110D83D9133F2C613D6E859E8BC82B) Complete name : [MagicStar] Believe - Kimi ni Kakeru Hashi - EP04 [WEBDL] [1080p] [Audio Description].mkv Format : Matroska Format version : Version 4 File size : 1.00 GiB Duration : 50 min 7 s Overall bit rate : 2 864 kb/s Frame rate : 29.970 FPS Encoded date : 2024-05-16 13:10:34 UTC Writing application : mkvmerge v50.0.0 ('Awakenings') 64-bit Writing library : libebml v1.4.0 + libmatroska v1.6.2 Video ID : 1 Format : AVC Format/Info : Advanced Video Codec Format profile : High@L4 Format settings : CABAC / 4 Ref Frames Format settings, CABAC : Yes Format settings, Reference fra : 4 frames Codec ID : V_MPEG4/ISO/AVC Duration : 50 min 6 s Bit rate : 2 669 kb/s Width : 1 920 pixels Height : 1 080 pixels Display aspect ratio : 16:9 Frame rate mode : Constant Frame rate : 29.970 (29970/1000) FPS Original frame rate : 29.970 (30000/1001) FPS Color space : YUV Chroma subsampling : 4:2:0 Bit depth : 8 bits Scan type : Progressive Bits/(Pixel*Frame) : 0.043 Stream size : 957 MiB (93%) Default : Yes Forced : No Color range : Limited Matrix coefficients : BT.709 Audio ID : 2 Format : AAC LC Format/Info : Advanced Audio Codec Low Complexity Codec ID : A_AAC-2 Duration : 50 min 7 s Bit rate : 192 kb/s Channel(s) : 2 channels Channel layout : L R Sampling rate : 48.0 kHz Frame rate : 46.875 FPS (1024 SPF) Compression mode : Lossy Stream size : 68.7 MiB (7%) Title : 日本語 [解説放送音声] Language : Japanese Default : Yes Forced : No
昨天 02:00 日剧更新了
HD 1080p from TVer. Japanese subtitles added. General Unique ID : 15713727224830733174688099915108517507 (0xBD25A9153DEAC6A23B081A5161D0683) Complete name : [MagicStar] Believe - Kimi ni Kakeru Hashi - EP04 [WEBDL] [1080p].mkv Format : Matroska Format version : Version 4 File size : 1.01 GiB Duration : 50 min 21 s Overall bit rate : 2 863 kb/s Frame rate : 29.970 FPS Encoded date : 2024-05-16 13:06:18 UTC Writing application : mkvmerge v50.0.0 ('Awakenings') 64-bit Writing library : libebml v1.4.0 + libmatroska v1.6.2 Video ID : 1 Format : AVC Format/Info : Advanced Video Codec Format profile : High@L4 Format settings : CABAC / 4 Ref Frames Format settings, CABAC : Yes Format settings, Reference fra : 4 frames Codec ID : V_MPEG4/ISO/AVC Duration : 50 min 21 s Bit rate : 2 669 kb/s Width : 1 920 pixels Height : 1 080 pixels Display aspect ratio : 16:9 Frame rate mode : Constant Frame rate : 29.970 (29970/1000) FPS Original frame rate : 29.970 (30000/1001) FPS Color space : YUV Chroma subsampling : 4:2:0 Bit depth : 8 bits Scan type : Progressive Bits/(Pixel*Frame) : 0.043 Stream size : 961 MiB (93%) Default : Yes Forced : No Color range : Limited Matrix coefficients : BT.709 Audio ID : 2 Format : AAC LC Format/Info : Advanced Audio Codec Low Complexity Codec ID : A_AAC-2 Duration : 50 min 21 s Bit rate : 192 kb/s Channel(s) : 2 channels Channel layout : L R Sampling rate : 48.0 kHz Frame rate : 46.875 FPS (1024 SPF) Compression mode : Lossy Stream size : 69.0 MiB (7%) Title : 日本語 [オリジナル] Language : Japanese Default : Yes Forced : No
昨天 02:00 日剧更新了
HD 1080p from DMM TV. Episode.5 Japanese subtitles added. We are planning to upload all DMM TV Dramas and Movies, we need your Support! Support Us Ali (Zhifubao / QR code): https://i.ibb.co/FWV2ggm/1660626347125.png PayPalMe: https://www.paypal.com/paypalme/sakuragikenji BTC (USDT): 19y5NF6voysif7PeJLv86Hf186ZS1i4rwu ETH: 0x807B4eec355Cfa65500BeE65A992a9a0d8432697 LTC: LUC2dTQkte7muv5oUUuRNJimLJvi9pgZUQ General Unique ID : 165496314830639398748422123377030240147 (0x7C816E4BA60D0432B2F8B22657369793) Complete name : Kawareta.Otoko.EP06.1080p.DMM-TV.WEB-DL.AAC2.0.H.264.V0-MagicStar.mkv Format : Matroska Format version : Version 4 File size : 1.24 GiB Duration : 23 min 25 s Overall bit rate : 7 567 kb/s Frame rate : 23.976 FPS Encoded date : 2024-05-16 04:51:55 UTC Writing application : mkvmerge v50.0.0 ('Awakenings') 64-bit Writing library : libebml v1.4.0 + libmatroska v1.6.2 Cover : Yes Attachments : cover.png Video ID : 1 Format : AVC Format/Info : Advanced Video Codec Format profile : High@L4 Format settings : CABAC / 1 Ref Frames Format settings, CABAC : Yes Format settings, Reference fra : 1 frame Format settings, GOP : M=1, N=24 Codec ID : V_MPEG4/ISO/AVC Duration : 23 min 24 s Bit rate mode : Constant Bit rate : 7 303 kb/s Width : 1 920 pixels Height : 1 080 pixels Display aspect ratio : 16:9 Frame rate mode : Constant Frame rate : 23.976 (24000/1001) FPS Color space : YUV Chroma subsampling : 4:2:0 Bit depth : 8 bits Scan type : Progressive Bits/(Pixel*Frame) : 0.147 Stream size : 1.19 GiB (96%) Default : Yes Forced : No Color range : Limited Color primaries : BT.709 Transfer characteristics : BT.709 Matrix coefficients : BT.709 Audio ID : 2 Format : AAC LC Format/Info : Advanced Audio Codec Low Complexity Codec ID : A_AAC-2 Duration : 23 min 25 s Bit rate : 256 kb/s Channel(s) : 2 channels Channel layout : L R Sampling rate : 48.0 kHz Frame rate : 46.875 FPS (1024 SPF) Compression mode : Lossy Stream size : 42.9 MiB (3%) Title : 日本語 [オリジナル] Language : Japanese Default : Yes Forced : No
昨天 02:00 日剧更新了
HD 1080p from U-NEXT. Episode.7 Japanese subtitles added. We are planning to upload all U-NEXT Dramas and Movies, we need your Support! Support Us Ali (Zhifubao / QR code): https://i.ibb.co/FWV2ggm/1660626347125.png PayPalMe: https://www.paypal.com/paypalme/sakuragikenji BTC (USDT): 19y5NF6voysif7PeJLv86Hf186ZS1i4rwu ETH: 0x807B4eec355Cfa65500BeE65A992a9a0d8432697 LTC: LUC2dTQkte7muv5oUUuRNJimLJvi9pgZUQ General Unique ID : 116100901089187400274951188082140504190 (0x5758385EE210830035B7A156EC99E07E) Complete name : Suki.na.Otoko.to.Wakaretai.EP08.1080p.U-NEXT.WEB-DL.AAC2.0.H.264-MagicStar.mkv Format : Matroska Format version : Version 4 File size : 752 MiB Duration : 25 min 2 s Overall bit rate : 4 200 kb/s Frame rate : 29.970 FPS Encoded date : 2024-05-15 14:38:43 UTC Writing application : mkvmerge v50.0.0 ('Awakenings') 64-bit Writing library : libebml v1.4.0 + libmatroska v1.6.2 Cover : Yes Attachments : cover.png Video ID : 1 Format : AVC Format/Info : Advanced Video Codec Format profile : Main@L4 Format settings : CABAC / 3 Ref Frames Format settings, CABAC : Yes Format settings, Reference fra : 3 frames Codec ID : V_MPEG4/ISO/AVC Duration : 25 min 1 s Bit rate : 4 052 kb/s Width : 1 920 pixels Height : 1 080 pixels Display aspect ratio : 16:9 Frame rate mode : Constant Frame rate : 29.970 (29970/1000) FPS Color space : YUV Chroma subsampling : 4:2:0 Bit depth : 8 bits Scan type : Progressive Bits/(Pixel*Frame) : 0.065 Stream size : 726 MiB (96%) Writing library : x264 core 164 Encoding settings : cabac=1 / ref=3 / deblock=1:-1:-1 / analyse=0x1:0x111 / me=hex / subme=4 / psy=1 / psy_rd=1.00:0.15 / mixed_ref=0 / me_range=16 / chroma_me=1 / trellis=1 / 8x8dct=0 / cqm=0 / deadzone=21,11 / fast_pskip=1 / chroma_qp_offset=-1 / threads=12 / lookahead_threads=3 / sliced_threads=0 / nr=0 / decimate=1 / interlaced=0 / bluray_compat=0 / constrained_intra=0 / bframes=2 / b_pyramid=0 / b_adapt=2 / b_bias=0 / direct=3 / weightb=1 / open_gop=0 / weightp=1 / keyint=60 / keyint_min=31 / scenecut=0 / intra_refresh=0 / rc_lookahead=20 / rc=2pass / mbtree=1 / bitrate=4052 / ratetol=1.0 / qcomp=0.60 / qpmin=0 / qpmax=69 / qpstep=4 / cplxblur=20.0 / qblur=0.5 / vbv_maxrate=8050 / vbv_bufsize=8050 / nal_hrd=none / filler=0 / ip_ratio=1.40 / aq=1:1.00 Language : English Default : Yes Forced : No Audio ID : 2 Format : AAC LC Format/Info : Advanced Audio Codec Low Complexity Codec ID : A_AAC-2 Duration : 25 min 2 s Bit rate : 128 kb/s Channel(s) : 2 channels Channel layout : L R Sampling rate : 48.0 kHz Frame rate : 46.875 FPS (1024 SPF) Compression mode : Lossy Stream size : 22.9 MiB (3%) Title : 日本語 [オリジナル] Language : Japanese Default : Yes Forced : No
昨天 00:03 日剧更新了
HD 1080p from Abema TV. Japanese subtitles added. General Unique ID : 191927258980858263432629406156441903920 (0x9063D8741981EB9FFED3C8D2EF49E330) Complete name : Kimi.to.Yukite.Saku.Shinsengumi.Seishunroku.EP04.1080p.ABEMA-TV.WEB-DL.AAC2.0.H.264-MagicStar.mkv Format : Matroska Format version : Version 4 File size : 710 MiB Duration : 23 min 38 s Overall bit rate mode : Variable Overall bit rate : 4 200 kb/s Frame rate : 29.970 FPS Encoded date : 2024-05-16 05:13:15 UTC Writing application : mkvmerge v50.0.0 ('Awakenings') 64-bit Writing library : libebml v1.4.0 + libmatroska v1.6.2 Video ID : 1 Format : AVC Format/Info : Advanced Video Codec Format profile : [email protected] Format settings : CABAC / 4 Ref Frames Format settings, CABAC : Yes Format settings, Reference fra : 4 frames Codec ID : V_MPEG4/ISO/AVC Duration : 23 min 37 s Bit rate mode : Variable Bit rate : 4 005 kb/s Maximum bit rate : 40.0 Mb/s Width : 1 920 pixels Height : 1 080 pixels Display aspect ratio : 16:9 Frame rate mode : Constant Frame rate : 29.970 (29970/1000) FPS Original frame rate : 29.970 (30000/1001) FPS Color space : YUV Chroma subsampling : 4:2:0 Bit depth : 8 bits Scan type : Progressive Bits/(Pixel*Frame) : 0.064 Stream size : 677 MiB (95%) Default : Yes Forced : No Audio ID : 2 Format : AAC LC Format/Info : Advanced Audio Codec Low Complexity Codec ID : A_AAC-2 Duration : 23 min 38 s Bit rate : 192 kb/s Channel(s) : 2 channels Channel layout : L R Sampling rate : 44.1 kHz Frame rate : 43.066 FPS (1024 SPF) Compression mode : Lossy Stream size : 32.6 MiB (5%) Title : 日本語 [オリジナル] Language : Japanese Default : Yes Forced : No
昨天 00:03 日剧更新了
HD 1080p from FOD. Japanese subtitles added. Support Us Ali (Zhifubao / QR code): https://i.ibb.co/FWV2ggm/1660626347125.png PayPalMe: https://www.paypal.com/paypalme/sakuragikenji BTC (USDT): 19y5NF6voysif7PeJLv86Hf186ZS1i4rwu ETH: 0x807B4eec355Cfa65500BeE65A992a9a0d8432697 LTC: LUC2dTQkte7muv5oUUuRNJimLJvi9pgZUQ General Unique ID : 163951658432877024013961960113200295741 (0x7B57F0DAF107FB6AD7F291933F79EF3D) Complete name : Blue.Moment.EP04.1080p.FOD.WEB-DL.AAC2.0.H.264-MagicStar.mkv Format : Matroska Format version : Version 4 File size : 1.68 GiB Duration : 44 min 37 s Overall bit rate mode : Variable Overall bit rate : 5 389 kb/s Frame rate : 29.970 FPS Encoded date : 2024-05-15 14:11:52 UTC Writing application : mkvmerge v50.0.0 ('Awakenings') 64-bit Writing library : libebml v1.4.0 + libmatroska v1.6.2 Video ID : 1 Format : AVC Format/Info : Advanced Video Codec Format profile : [email protected] Format settings : CABAC / 2 Ref Frames Format settings, CABAC : Yes Format settings, Reference fra : 2 frames Codec ID : V_MPEG4/ISO/AVC Duration : 44 min 37 s Bit rate mode : Variable Bit rate : 5 194 kb/s Maximum bit rate : 15.0 Mb/s Width : 1 920 pixels Height : 1 080 pixels Display aspect ratio : 16:9 Frame rate mode : Constant Frame rate : 29.970 (29970/1000) FPS Original frame rate : 29.970 (30000/1001) FPS Color space : YUV Chroma subsampling : 4:2:0 Bit depth : 8 bits Scan type : Progressive Bits/(Pixel*Frame) : 0.084 Stream size : 1.62 GiB (96%) Default : Yes Forced : No Color range : Limited Color primaries : BT.709 Transfer characteristics : BT.709 Matrix coefficients : BT.709 Audio ID : 2 Format : AAC LC Format/Info : Advanced Audio Codec Low Complexity Codec ID : A_AAC-2 Duration : 44 min 36 s Bit rate : 192 kb/s Channel(s) : 2 channels Channel layout : L R Sampling rate : 48.0 kHz Frame rate : 46.875 FPS (1024 SPF) Compression mode : Lossy Stream size : 61.3 MiB (4%) Title : 日本語 [オリジナル] Language : Japanese Default : Yes Forced : No
前天 02:00 日剧更新了
[美国][剧情/奇幻/冒险][权力的游戏第八季 Game.of.Thrones.S08(全06集)][WEBRip-MKV/2G][中英字幕] ◎译  名 权力的游戏 第八季/Game of Thrones: The Final Season/权游8 ◎片  名 Game of Thrones Season 8 ◎年  代 2019 ◎产  地  美国 ◎类  别 剧情/奇幻/冒险 ◎语  言  英语 ◎官方主页  http://www.hbo.com/game-of-thrones ◎上映日期 2019-04-14(美国) ◎整理链接 http://bbs.homefei.me/read-htm-tid-184747.html ◎IMDb评分 9.5/10 from 1,437,376 users ◎IMDb链接 http://www.imdb.com/title/tt0944947 ◎豆瓣评分 9.8/10 from 8,792 users ◎豆瓣链接  https://movie.douban.com/subject/26584183/ ◎集  数 6 ◎片  长 60分钟(E1-E2) / 80分钟(E3-E6) ◎导  演 米格尔·萨普什尼克 Miguel Sapochnik / 大卫·努特尔 David Nutter / 戴维·贝尼奥夫 David Benioff / D·B·威斯 D.B. Weiss ◎编  剧 戴维·贝尼奥夫 David Benioff / D·B·威斯 D.B. Weiss / 乔治·马丁 George R.R. Martin ◎主  演 艾米莉亚·克拉克 Emilia Clarke 基特·哈灵顿 Kit Harington 彼特·丁拉基 Peter Dinklage 苏菲·特纳 Sophie Turner 麦茜·威廉姆斯 Maisie Williams 琳娜·海蒂 Lena Headey 伊萨克·亨普斯特德-怀特 Isaac Hempstead-Wright 尼古拉·科斯特-瓦尔道 Nikolaj Coster-Waldau 约翰·C·布莱德利 John C. Bradley 阿尔菲·艾伦 Alfie Allen 皮鲁·埃斯贝克 Pilou Asbæk 格温多兰·克里斯蒂 Gwendoline Christie 利亚姆·坎宁安 Liam Cunningham ◎简  介 HBO剧集《权力的游戏》第八季将于2019年4月14日播出,本季共6集。 故事发展至第八季,重返临冬城的琼恩·雪诺(基特·哈灵顿 Kit Harington 饰)在布兰·史塔克(伊萨克·亨普斯特德-怀特 Isaac Hempstead-Wright 饰)口中得知了自己身世的 秘密 ,让他与丹妮莉丝·塔格利安(艾米莉亚·克拉克 Emilia Clarke 饰)的关系蒙上了一层冰霜。 詹姆·兰尼斯特(尼古拉·科斯特-瓦尔道 Nikolaj Coster-Waldau 饰)试图召集河间地驻军北伐异鬼,却发现艾德慕·徒利(托比亚斯·门基斯 Tobias Menzies 饰)已经包围你了奔流城。 攸伦·葛雷乔伊(皮鲁·埃斯贝克 Pilou Asbæ 饰)将黄金团带至君临获取了瑟曦(琳娜·海蒂 Lena Headey 饰)的信任,而实际上,他已经与无面者贾昆·赫加尔(汤姆·拉斯齐哈 Tom Wlaschiha 饰)私下达成了秘密协议。 ◎获奖情况 第5届豆瓣 电影 年度榜单 ( 2018 ) 最值得期待的剧集(提名) 第一集磁力链接: magnet:?xt=urn:btih:cb4b612b6259ff87fc9322b6c71867ba107cc841&xl=2130707465 第二集磁力链接: magnet:?xt=urn:btih:08f53f5768c41bd73d266286fedfacbbe05817a9&xl=2285896713 第三集磁力链接: magnet:?xt=urn:btih:4E27CC34832CE75CDF652C0BA51FFB6B45C66CB2 第四集磁力链接: magnet:?xt=urn:btih:B54F70152F7BE160E9FDBC9105A1EBF25BB93921 第五集磁力链接: magnet:?xt=urn:btih:11732BCFE7553549FBD24C30280FFA427F9F03F9 第六集磁力链接: magnet:?xt=urn:btih:C713C1C992DEB0F5A048BED219C00DC676F353BA
05/20 21:03 飘域家园 (讨论)
[美国][剧情/奇幻/冒险][权力的游戏第八季 Game.of.Thrones.S08(更新05集)][WEBRip-MKV/2G][中英字幕] ◎译  名 权力的游戏 第八季/Game of Thrones: The Final Season/权游8 ◎片  名 Game of Thrones Season 8 ◎年  代 2019 ◎产  地  美国 ◎类  别 剧情/奇幻/冒险 ◎语  言  英语 ◎官方主页  http://www.hbo.com/game-of-thrones ◎上映日期 2019-04-14(美国) ◎整理链接 http://bbs.homefei.me/read-htm-tid-184747.html ◎IMDb评分 9.5/10 from 1,437,376 users ◎IMDb链接 http://www.imdb.com/title/tt0944947 ◎豆瓣评分 9.8/10 from 8,792 users ◎豆瓣链接  https://movie.douban.com/subject/26584183/ ◎集  数 6 ◎片  长 60分钟(E1-E2) / 80分钟(E3-E6) ◎导  演 米格尔·萨普什尼克 Miguel Sapochnik / 大卫·努特尔 David Nutter / 戴维·贝尼奥夫 David Benioff / D·B·威斯 D.B. Weiss ◎编  剧 戴维·贝尼奥夫 David Benioff / D·B·威斯 D.B. Weiss / 乔治·马丁 George R.R. Martin ◎主  演 艾米莉亚·克拉克 Emilia Clarke 基特·哈灵顿 Kit Harington 彼特·丁拉基 Peter Dinklage 苏菲·特纳 Sophie Turner 麦茜·威廉姆斯 Maisie Williams 琳娜·海蒂 Lena Headey 伊萨克·亨普斯特德-怀特 Isaac Hempstead-Wright 尼古拉·科斯特-瓦尔道 Nikolaj Coster-Waldau 约翰·C·布莱德利 John C. Bradley 阿尔菲·艾伦 Alfie Allen 皮鲁·埃斯贝克 Pilou Asbæk 格温多兰·克里斯蒂 Gwendoline Christie 利亚姆·坎宁安 Liam Cunningham ◎简  介 HBO剧集《权力的游戏》第八季将于2019年4月14日播出,本季共6集。 故事发展至第八季,重返临冬城的琼恩·雪诺(基特·哈灵顿 Kit Harington 饰)在布兰·史塔克(伊萨克·亨普斯特德-怀特 Isaac Hempstead-Wright 饰)口中得知了自己身世的 秘密 ,让他与丹妮莉丝·塔格利安(艾米莉亚·克拉克 Emilia Clarke 饰)的关系蒙上了一层冰霜。 詹姆·兰尼斯特(尼古拉·科斯特-瓦尔道 Nikolaj Coster-Waldau 饰)试图召集河间地驻军北伐异鬼,却发现艾德慕·徒利(托比亚斯·门基斯 Tobias Menzies 饰)已经包围你了奔流城。 攸伦·葛雷乔伊(皮鲁·埃斯贝克 Pilou Asbæ 饰)将黄金团带至君临获取了瑟曦(琳娜·海蒂 Lena Headey 饰)的信任,而实际上,他已经与无面者贾昆·赫加尔(汤姆·拉斯齐哈 Tom Wlaschiha 饰)私下达成了秘密协议。 ◎获奖情况 第5届豆瓣 电影 年度榜单 ( 2018 ) 最值得期待的剧集(提名) 第一集磁力链接: magnet:?xt=urn:btih:cb4b612b6259ff87fc9322b6c71867ba107cc841&xl=2130707465 第二集磁力链接: magnet:?xt=urn:btih:08f53f5768c41bd73d266286fedfacbbe05817a9&xl=2285896713 第三集磁力链接: magnet:?xt=urn:btih:4E27CC34832CE75CDF652C0BA51FFB6B45C66CB2 第四集磁力链接: magnet:?xt=urn:btih:B54F70152F7BE160E9FDBC9105A1EBF25BB93921 第五集磁力链接: magnet:?xt=urn:btih:11732BCFE7553549FBD24C30280FFA427F9F03F9
05/13 19:54 飘域家园 (讨论)
[美国][剧情/奇幻/冒险][权力的游戏第八季 Game.of.Thrones.S08(更新04集)][WEBRip-MKV/2G][中英字幕] ◎译  名 权力的游戏 第八季/Game of Thrones: The Final Season/权游8 ◎片  名 Game of Thrones Season 8 ◎年  代 2019 ◎产  地  美国 ◎类  别 剧情/奇幻/冒险 ◎语  言  英语 ◎官方主页  http://www.hbo.com/game-of-thrones ◎上映日期 2019-04-14(美国) ◎整理链接 http://bbs.homefei.me/read-htm-tid-184747.html ◎IMDb评分 9.5/10 from 1,437,376 users ◎IMDb链接 http://www.imdb.com/title/tt0944947 ◎豆瓣评分 9.8/10 from 8,792 users ◎豆瓣链接  https://movie.douban.com/subject/26584183/ ◎集  数 6 ◎片  长 60分钟(E1-E2) / 80分钟(E3-E6) ◎导  演 米格尔·萨普什尼克 Miguel Sapochnik / 大卫·努特尔 David Nutter / 戴维·贝尼奥夫 David Benioff / D·B·威斯 D.B. Weiss ◎编  剧 戴维·贝尼奥夫 David Benioff / D·B·威斯 D.B. Weiss / 乔治·马丁 George R.R. Martin ◎主  演 艾米莉亚·克拉克 Emilia Clarke 基特·哈灵顿 Kit Harington 彼特·丁拉基 Peter Dinklage 苏菲·特纳 Sophie Turner 麦茜·威廉姆斯 Maisie Williams 琳娜·海蒂 Lena Headey 伊萨克·亨普斯特德-怀特 Isaac Hempstead-Wright 尼古拉·科斯特-瓦尔道 Nikolaj Coster-Waldau 约翰·C·布莱德利 John C. Bradley 阿尔菲·艾伦 Alfie Allen 皮鲁·埃斯贝克 Pilou Asbæk 格温多兰·克里斯蒂 Gwendoline Christie 利亚姆·坎宁安 Liam Cunningham ◎简  介 HBO剧集《权力的游戏》第八季将于2019年4月14日播出,本季共6集。 故事发展至第八季,重返临冬城的琼恩·雪诺(基特·哈灵顿 Kit Harington 饰)在布兰·史塔克(伊萨克·亨普斯特德-怀特 Isaac Hempstead-Wright 饰)口中得知了自己身世的 秘密 ,让他与丹妮莉丝·塔格利安(艾米莉亚·克拉克 Emilia Clarke 饰)的关系蒙上了一层冰霜。 詹姆·兰尼斯特(尼古拉·科斯特-瓦尔道 Nikolaj Coster-Waldau 饰)试图召集河间地驻军北伐异鬼,却发现艾德慕·徒利(托比亚斯·门基斯 Tobias Menzies 饰)已经包围你了奔流城。 攸伦·葛雷乔伊(皮鲁·埃斯贝克 Pilou Asbæ 饰)将黄金团带至君临获取了瑟曦(琳娜·海蒂 Lena Headey 饰)的信任,而实际上,他已经与无面者贾昆·赫加尔(汤姆·拉斯齐哈 Tom Wlaschiha 饰)私下达成了秘密协议。 ◎获奖情况 第5届豆瓣 电影 年度榜单 ( 2018 ) 最值得期待的剧集(提名) 第一集磁力链接: magnet:?xt=urn:btih:cb4b612b6259ff87fc9322b6c71867ba107cc841&xl=2130707465 第二集磁力链接: magnet:?xt=urn:btih:08f53f5768c41bd73d266286fedfacbbe05817a9&xl=2285896713 第三集磁力链接: magnet:?xt=urn:btih:4E27CC34832CE75CDF652C0BA51FFB6B45C66CB2 第四集磁力链接: magnet:?xt=urn:btih:B54F70152F7BE160E9FDBC9105A1EBF25BB93921
05/06 19:32 飘域家园 (讨论)
[美国][剧情/奇幻/冒险][权力的游戏第八季 Game.of.Thrones.S08E01-02(更新02集)][WEBRip-MKV/2G][中英字幕] ◎译  名 权力的游戏 第八季/Game of Thrones: The Final Season/权游8 ◎片  名 Game of Thrones Season 8 ◎年  代 2019 ◎产  地  美国 ◎类  别 剧情/奇幻/冒险 ◎语  言  英语 ◎官方主页  http://www.hbo.com/game-of-thrones ◎上映日期 2019-04-14(美国) ◎整理链接 http://bbs.homefei.me/read-htm-tid-184747.html ◎IMDb评分 9.5/10 from 1,437,376 users ◎IMDb链接 http://www.imdb.com/title/tt0944947 ◎豆瓣评分 9.8/10 from 8,792 users ◎豆瓣链接  https://movie.douban.com/subject/26584183/ ◎集  数 6 ◎片  长 60分钟(E1-E2) / 80分钟(E3-E6) ◎导  演 米格尔·萨普什尼克 Miguel Sapochnik / 大卫·努特尔 David Nutter / 戴维·贝尼奥夫 David Benioff / D·B·威斯 D.B. Weiss ◎编  剧 戴维·贝尼奥夫 David Benioff / D·B·威斯 D.B. Weiss / 乔治·马丁 George R.R. Martin ◎主  演 艾米莉亚·克拉克 Emilia Clarke 基特·哈灵顿 Kit Harington 彼特·丁拉基 Peter Dinklage 苏菲·特纳 Sophie Turner 麦茜·威廉姆斯 Maisie Williams 琳娜·海蒂 Lena Headey 伊萨克·亨普斯特德-怀特 Isaac Hempstead-Wright 尼古拉·科斯特-瓦尔道 Nikolaj Coster-Waldau 约翰·C·布莱德利 John C. Bradley 阿尔菲·艾伦 Alfie Allen 皮鲁·埃斯贝克 Pilou Asbæk 格温多兰·克里斯蒂 Gwendoline Christie 利亚姆·坎宁安 Liam Cunningham ◎简  介 HBO剧集《权力的游戏》第八季将于2019年4月14日播出,本季共6集。 故事发展至第八季,重返临冬城的琼恩·雪诺(基特·哈灵顿 Kit Harington 饰)在布兰·史塔克(伊萨克·亨普斯特德-怀特 Isaac Hempstead-Wright 饰)口中得知了自己身世的 秘密 ,让他与丹妮莉丝·塔格利安(艾米莉亚·克拉克 Emilia Clarke 饰)的关系蒙上了一层冰霜。 詹姆·兰尼斯特(尼古拉·科斯特-瓦尔道 Nikolaj Coster-Waldau 饰)试图召集河间地驻军北伐异鬼,却发现艾德慕·徒利(托比亚斯·门基斯 Tobias Menzies 饰)已经包围你了奔流城。 攸伦·葛雷乔伊(皮鲁·埃斯贝克 Pilou Asbæ 饰)将黄金团带至君临获取了瑟曦(琳娜·海蒂 Lena Headey 饰)的信任,而实际上,他已经与无面者贾昆·赫加尔(汤姆·拉斯齐哈 Tom Wlaschiha 饰)私下达成了秘密协议。 ◎获奖情况 第5届豆瓣 电影 年度榜单 ( 2018 ) 最值得期待的剧集(提名) 第一集磁力链接: magnet:?xt=urn:btih:cb4b612b6259ff87fc9322b6c71867ba107cc841&xl=2130707465 第二集磁力链接: magnet:?xt=urn:btih:08f53f5768c41bd73d266286fedfacbbe05817a9&xl=2285896713
04/22 19:15 飘域家园 (讨论) 约1条评论
[美国][剧情/奇幻/冒险][权力的游戏第八季 Game.of.Thrones.S08E01(更新01集)][WEBRip-MKV/2G][中英字幕] ◎译  名 权力的游戏 第八季/Game of Thrones: The Final Season/权游8 ◎片  名 Game of Thrones Season 8 ◎年  代 2019 ◎产  地  美国 ◎类  别 剧情/奇幻/冒险 ◎语  言  英语 ◎官方主页  http://www.hbo.com/game-of-thrones ◎上映日期 2019-04-14(美国) ◎整理链接 http://bbs.homefei.me/read-htm-tid-184747.html ◎IMDb评分 9.5/10 from 1,437,376 users ◎IMDb链接 http://www.imdb.com/title/tt0944947 ◎豆瓣评分 9.8/10 from 8,792 users ◎豆瓣链接  https://movie.douban.com/subject/26584183/ ◎集  数 6 ◎片  长 60分钟(E1-E2) / 80分钟(E3-E6) ◎导  演 米格尔·萨普什尼克 Miguel Sapochnik / 大卫·努特尔 David Nutter / 戴维·贝尼奥夫 David Benioff / D·B·威斯 D.B. Weiss ◎编  剧 戴维·贝尼奥夫 David Benioff / D·B·威斯 D.B. Weiss / 乔治·马丁 George R.R. Martin ◎主  演 艾米莉亚·克拉克 Emilia Clarke 基特·哈灵顿 Kit Harington 彼特·丁拉基 Peter Dinklage 苏菲·特纳 Sophie Turner 麦茜·威廉姆斯 Maisie Williams 琳娜·海蒂 Lena Headey 伊萨克·亨普斯特德-怀特 Isaac Hempstead-Wright 尼古拉·科斯特-瓦尔道 Nikolaj Coster-Waldau 约翰·C·布莱德利 John C. Bradley 阿尔菲·艾伦 Alfie Allen 皮鲁·埃斯贝克 Pilou Asbæk 格温多兰·克里斯蒂 Gwendoline Christie 利亚姆·坎宁安 Liam Cunningham ◎简  介 HBO剧集《权力的游戏》第八季将于2019年4月14日播出,本季共6集。 故事发展至第八季,重返临冬城的琼恩·雪诺(基特·哈灵顿 Kit Harington 饰)在布兰·史塔克(伊萨克·亨普斯特德-怀特 Isaac Hempstead-Wright 饰)口中得知了自己身世的 秘密 ,让他与丹妮莉丝·塔格利安(艾米莉亚·克拉克 Emilia Clarke 饰)的关系蒙上了一层冰霜。 詹姆·兰尼斯特(尼古拉·科斯特-瓦尔道 Nikolaj Coster-Waldau 饰)试图召集河间地驻军北伐异鬼,却发现艾德慕·徒利(托比亚斯·门基斯 Tobias Menzies 饰)已经包围你了奔流城。 攸伦·葛雷乔伊(皮鲁·埃斯贝克 Pilou Asbæ 饰)将黄金团带至君临获取了瑟曦(琳娜·海蒂 Lena Headey 饰)的信任,而实际上,他已经与无面者贾昆·赫加尔(汤姆·拉斯齐哈 Tom Wlaschiha 饰)私下达成了秘密协议。 ◎获奖情况 第5届豆瓣 电影 年度榜单 ( 2018 ) 最值得期待的剧集(提名) 磁力链接: magnet:?xt=urn:btih:cb4b612b6259ff87fc9322b6c71867ba107cc841&xl=2130707465
04/15 20:32 飘域家园 (讨论)
[中国][战争/历史][辛亥革命1911 Revolution 2011][BD-MKV/3G][中英字幕][赵文瑄/孙淳/成龙/姜武/李冰冰] 【中 文 名】 辛亥革命 【外 文 名】 Xin Hai Ge Ming 【译 名】 1911辛亥革命 【出品时间】 2011年 【出品公司】上海东方影视发行有限责任公司 【制片地区】 中国 【制片成本】 $30,000,000/estimated 【拍摄地点】 浙江横店影视城 【导 演】 张黎,成龙 【编 剧】 王兴东,陈宝光 【制 片 人】 汪天云,毕述林,王浙滨 【类 型】 战争/历史 【主 演】 赵文瑄,孙淳,成龙,姜武,黄志忠,李冰冰 【片 长】 120分钟 【上映时间】 2011年9月23日 【语言字幕】 粤语/中英字幕 【海外发行】 北京耀莱国际文化产业有限公司 【整理链接】 http://bbs.homefei.me/read-htm-tid-183593.html 【 剧情 简介】 《辛亥革命》是由张黎和成龙执导,赵文瑄、李冰冰、陈冲、孙淳、房祖名、胡歌、余少群、杜宇航等主演的革命 战争 片。该片讲述了晚清末年,内忧外患,中华民族到了危亡之际。改良派维新变法运动的失败,孙中山为首的革命派,决心以革命推翻清政府,建立共和体制的故事。该片于2011年9月23日在中国内地公映。 晚清末年,内忧外患,中华民族到了危亡之际。改良派维新变法运动的失败,孙中山为首的革命派,决心以革命推翻清政府,建立共和体制。 1895到1910年,革命党人先后发动了多次起义,秋瑾、徐锡麟等一批革命党先驱先后牺牲,革命陷入低潮。 1910年底,孙中山再次在海外召集同盟会骨干,组织力量准备在广州发动起义黄兴与徐宗汉假扮夫妇, 秘密 潜入广州。然而广州之战终因革命党人寡不敌众而告负,林觉民等一大批革命骨干壮烈牺牲,黄兴也身负重伤。徐宗汉等冒死收葬了烈士遗体72具,葬于广州城外的黄花岗。 经过这次的起义,清政府对革命党人进行了血腥镇压,同时积极寻求与帝国主义的卖国交易。 在四川,清廷又一次丧权辱国的行为,引发了轰轰烈烈的保路运动,湖北新军被紧急抽调前去镇压。在武昌,新军当中的革命党名单泄露,湖广总督瑞澂开始对名单上的革命党人逐一捕杀,革命形势十分危急,革命党人熊秉坤、金兆龙等愤然打响了革命第一枪。经过一夜激战,武昌起义的革命军攻占了总督府,黎元洪被革命军将士紧急推为军政府都督。 武昌起义成功,举国震惊,消息传到 美国 ,孙中山和同盟会成员欢欣鼓舞。立即派黄兴和徐宗汉赶到武昌战场,大大振奋了革命军士气。不惜以热血和生命保卫飘扬着革命红旗的武汉三镇。经过这么多血与火的洗礼,黄兴和徐宗汉的感情不断升华,两人决定结为革命夫妻继续比并肩战斗。 风雨飘渺的清廷只好请袁世凯出山,率北洋军镇压革命。袁世凯一方面镇压革命军,另一方面仍试图在各方势力的博弈中,暗地里通过革命党人汪精卫传达与革命党和谈的愿望。 革命的危急关头,孙中山奔赴海外,力排众议,最终说服西方列国财团,不再借贷款支持清廷。 阳夏保卫战打得异常惨烈,黄兴和黎元洪艰难支撑,在各种反动势力的夹击下,黄兴毅然决定率部撤往长江下游,集聚力量,以图大业。 长江战舰在行进中,传来了多省宣布独立的消息,黄兴等备受鼓舞。 自此,革命形势进入了南北对峙的局面,经过多方努力,南北代表唐绍仪和伍廷芳终于坐下来会谈,经过艰难谈判,双方达成共识,支持建立共和政体;经过十八省代表的公开民主选举,孙中山被推选为首任大总统。孙中山表示,只要袁世凯敦促清帝退位,他即可让位,由逼退清让位的人,出任中华民国大总统。 【电影 截图 】 磁力链接: magnet:?xt=urn:btih:eafdf760d5551860f6a6f0af02c20fa51d53a00c&xl=3321889801
03/23 10:57 飘域家园 (讨论)
★銀色子彈官網:https://www.sbsub.com/ ★銀色子彈字幕組數據站:https://www.sbsub.com/data/ ★銀色子彈字幕組版權說明:https://www.sbsub.com/data/#tocheckcopyright ★微博、嗶哩嗶哩、抖音:銀色子彈SBSUB 說明: 1.BT做種時間:發佈起至發佈15天時停止,歡迎廣大網友持續保種分流 2.建議使用標準BT軟體下載,不使用吸血軟體 3.超過做種時間且無下載速度的資源可優先嚐試使用各種網盤的離線下載 4.如發現翻譯錯誤等問題,可傳送郵件至[email protected]進行最高效反饋 ============================= 文件名:[SBSUB][Professional][531_Aoyama_Gosho][TVRIP][4K][AVC_AAC][CHT_JP](D8E11CA1).mp4 文件大小:3.7 gb CRC32:D8E11CA1 MD5:23E0919B25CC7B6ABBDC4B91C2BA2775 持續時間:1:11:29.133 主要影片編碼:AVC [email protected] 主要音訊編碼:AAC 影片流數量:1 音訊流數量:1 --------------------- 影片流[1]:編碼格式:AVC 影片流[1]:持續時間:1:11:29.133 影片流[1]:位元速率:6.9 mb/s 影片流[1]:解析度:2160P (3840*2160) 影片流[1]:幀率:59.94 影片流[1]:掃描類型:progressive --------------------- 音訊流[1]:編碼格式:AAC 音訊流[1]:持續時間:1:11:29.152 音訊流[1]:聲道:2 音訊流[1]:位元速率:171.3 kb/s 音訊流[1]:採樣率:48000 =============================
今天 04:00 五花八门
★银色子弹官网:https://www.sbsub.com/ ★银色子弹字幕组数据站:https://www.sbsub.com/data/ ★银色子弹字幕组版权说明:https://www.sbsub.com/data/#tocheckcopyright ★微博、哔哩哔哩、抖音:银色子弹SBSUB 说明: 1.BT做种时间:发布起至发布15天时停止,欢迎广大网友持续保种分流 2.建议使用标准BT软件下载,不使用吸血软件 3.超过做种时间且无下载速度的资源可优先尝试使用各种网盘的离线下载 4.如发现翻译错误等问题,可发送邮件至[email protected]进行最高效反馈 ============================= 文件名:[SBSUB][Professional][531_Aoyama_Gosho][TVRIP][4K][HDR][HEVC_FLAC][CHS_CHT_JP](F0ECC627).mkv 文件大小:7.4 gb CRC32:F0ECC627 MD5:F508C329373E2E80D947C80ED3127EF5 持续时间:1:11:29.135 主要视频编码:HEVC Main [email protected]@Main 主要音频编码:FLAC 视频流数量:1 音频流数量:1 字幕流数量:2 --------------------- 视频流[1]:编码格式:HEVC 视频流[1]:持续时间:1:11:29.135 视频流[1]:码率:12.8 mb/s 视频流[1]:分辨率:2160P (3840*2160) 视频流[1]:帧率:59.94 视频流[1]:扫描类型: --------------------- 音频流[1]:编码格式:FLAC 音频流[1]:持续时间:1:11:29.139 音频流[1]:声道:2 音频流[1]:码率:1.1 mb/s 音频流[1]:位深:24 音频流[1]:采样率:48000 --------------------- 字幕流[1]:[ASS] 简日字幕 字幕流[2]:[ASS] 繁日字幕 =============================
今天 02:00 五花八门
★银色子弹官网:https://www.sbsub.com/ ★银色子弹字幕组数据站:https://www.sbsub.com/data/ ★银色子弹字幕组版权说明:https://www.sbsub.com/data/#tocheckcopyright ★微博、哔哩哔哩、抖音:银色子弹SBSUB 说明: 1.BT做种时间:发布起至发布15天时停止,欢迎广大网友持续保种分流 2.建议使用标准BT软件下载,不使用吸血软件 3.超过做种时间且无下载速度的资源可优先尝试使用各种网盘的离线下载 4.如发现翻译错误等问题,可发送邮件至[email protected]进行最高效反馈 ============================= 文件名:[SBSUB][Professional][531_Aoyama_Gosho][TVRIP][4K][AVC_AAC][CHS_JP](6B829D6D).mp4 文件大小:3.7 gb CRC32:6B829D6D MD5:EEC065FC84AA97E59441156D0A846617 持续时间:1:11:29.133 主要视频编码:AVC [email protected] 主要音频编码:AAC 视频流数量:1 音频流数量:1 --------------------- 视频流[1]:编码格式:AVC 视频流[1]:持续时间:1:11:29.133 视频流[1]:码率:6.9 mb/s 视频流[1]:分辨率:2160P (3840*2160) 视频流[1]:帧率:59.94 视频流[1]:扫描类型:progressive --------------------- 音频流[1]:编码格式:AAC 音频流[1]:持续时间:1:11:29.152 音频流[1]:声道:2 音频流[1]:码率:171.3 kb/s 音频流[1]:采样率:48000 =============================
今天 02:00 五花八门