旋风动漫BT资源发布索引 | 汇聚动漫BT/ED资源
被解雇的暗黑士兵(30多岁)开始了慢生活的第二人生 BDRip Kaiko sareta Ankoku Heishi (30-dai) no Slow na Second Life BDRip 解雇された暗黒兵士(30代)のスローなセカンドライフ BDRip 原盘画质一般,原生分辨率 900p。虽然原生分辨率较高,但使用的拉升算法不佳,导致线条依旧偏糊,而且有中等程度的锯齿。平面上噪点强度尚可,官方在制作过程中加入了有序颜色抖动以避免色带产生,效果还算不错,就是放大之后极为难看。我们主要进行了逆向拉伸重构、抗锯齿、补偿性锐化,然后用质量更好的去色带算法替换了平面上的色彩抖动,最后是自适应降噪。 Source image quality is about average. While its 900p native resolution is relatively high, a poor upscaling algorithm was used, resulting in still somewhat blurry lines and moderate aliasing. Noise in the flat areas is okay though. The official PP used ordered dithering to avoid color banding, which is decent at first glance, but looks very ugly when zoomed in. Our PP includes descale and reconstruction, anti-aliasing, compensatory sharpening, followed by replacing the color dithering with a higher-quality de-banding algorithm. Adaptive denoising was finally used to wrap things up. 感谢所有参与制作者 / Thanks to our participating members: 总监 / Script: 玛丽卡 压制 / Encode: fushu 整理 / Collate: LKey Eden 发布 / Upload: Tom 分流 / Seed: VCB-Studio CDN 分流成员 感谢所有资源提供者 / Thanks to all resource providers: CDs: SkyOH@u2, matheousse@Nyaa Vol.4 BD&Scans: redblaze@HAYAKU@7³ACG@MDU, OurBits VCB-Studio 已不再保证收集作品相关 CD 和扫图资源,详情请参见 https://vcb-s.com/archives/14331 。 Please refer to https://vcb-s.com/archives/14331 for more information about that VCB-Studio will no longer guarantee to include relevant CDs and scans. 本组(不)定期招募新成员。详情请参见 https://vcb-s.com/archives/16986 。 Please refer to https://vcb-s.com/archives/16986 about information of our (un)scheduled recruitment. 播放器教程索引: VCB-Studio 播放器推荐 中文字幕分享区: Anime 分享论坛 项目计划与列表: VCB-Studio 项目列表 特殊格式与说明: WebP 扫图说明 Comparison (right click on the image and open it in a new tab to see the full-size one) Source________________________________________________Encode
今天 14:00 动画更新员
HD 1080p from Prime Video. Use CBR bitrate mode. We are planning to upload all Prime Video Japan Dramas and Movies, we need your Support! Support Us Ali (Zhifubao / QR code): https://i.ibb.co/FWV2ggm/1660626347125.png PayPalMe: https://www.paypal.com/paypalme/sakuragikenji ETH (ERC20): 0xea3286E176099E8C9aBaf25A0edf231374C04E89 USDT (BTC / OMNI): 1Lemw6fu5vG3NdvWGxDxsPX7T7yUb3rNzu General Unique ID : 178435467299847103669229050072335825120 (0x863D6BC41F81442D37BE38B82F0EB8E0) Complete name : Kamen.Rider.Gotchard.EP24.1080p.AMZN.WEB-DL.DDP2.0.H.264-MagicStar.mkv Format : Matroska Format version : Version 4 File size : 1.43 GiB Duration : 23 min 17 s Overall bit rate mode : Constant Overall bit rate : 8 815 kb/s Frame rate : 23.976 FPS Encoded date : 2024-02-28 01:21:53 UTC Writing application : mkvmerge v50.0.0 ('Awakenings') 64-bit Writing library : libebml v1.4.0 + libmatroska v1.6.2 Cover : Yes Attachments : cover.jpg Video ID : 1 Format : AVC Format/Info : Advanced Video Codec Format profile : High@L4 Format settings : CABAC / 4 Ref Frames Format settings, CABAC : Yes Format settings, Reference fra : 4 frames Codec ID : V_MPEG4/ISO/AVC Duration : 23 min 17 s Bit rate mode : Constant Bit rate : 8 581 kb/s Nominal bit rate : 10 000 kb/s Width : 1 920 pixels Height : 1 080 pixels Display aspect ratio : 16:9 Frame rate mode : Constant Frame rate : 23.976 (24000/1001) FPS Color space : YUV Chroma subsampling : 4:2:0 Bit depth : 8 bits Scan type : Progressive Bits/(Pixel*Frame) : 0.173 Stream size : 1.40 GiB (97%) Default : Yes Forced : No Color range : Limited Color primaries : BT.709 Transfer characteristics : BT.709 Matrix coefficients : BT.709 Audio ID : 2 Format : E-AC-3 Format/Info : Enhanced AC-3 Commercial name : Dolby Digital Plus Codec ID : A_EAC3 Duration : 23 min 17 s Bit rate mode : Constant Bit rate : 224 kb/s Channel(s) : 2 channels Channel layout : L R Sampling rate : 48.0 kHz Frame rate : 31.250 FPS (1536 SPF) Compression mode : Lossy Stream size : 37.3 MiB (3%) Title : 日本語 [オリジナル] Language : Japanese Service kind : Complete Main Default : Yes Forced : No
02/28 10:00 特摄连载
HD 1080p from Prime Video. Use CBR bitrate mode. We are planning to upload all Prime Video Japan Dramas and Movies, we need your Support! Support Us Ali (Zhifubao / QR code): https://i.ibb.co/FWV2ggm/1660626347125.png PayPalMe: https://www.paypal.com/paypalme/sakuragikenji ETH (ERC20): 0xea3286E176099E8C9aBaf25A0edf231374C04E89 USDT (BTC / OMNI): 1Lemw6fu5vG3NdvWGxDxsPX7T7yUb3rNzu General Unique ID : 203369943455118764696339347022658895905 (0x98FFA05B051FBDC4A6D30C09808B8021) Complete name : Ohsama.Sentai.King.Ohger.EP50.1080p.AMZN.WEB-DL.DDP2.0.H.264-MagicStar.mkv Format : Matroska Format version : Version 4 File size : 1.51 GiB Duration : 22 min 17 s Overall bit rate mode : Constant Overall bit rate : 9 700 kb/s Frame rate : 23.976 FPS Encoded date : 2024-02-28 01:11:44 UTC Writing application : mkvmerge v50.0.0 ('Awakenings') 64-bit Writing library : libebml v1.4.0 + libmatroska v1.6.2 Cover : Yes Attachments : cover.jpg Video ID : 1 Format : AVC Format/Info : Advanced Video Codec Format profile : High@L4 Format settings : CABAC / 4 Ref Frames Format settings, CABAC : Yes Format settings, Reference fra : 4 frames Codec ID : V_MPEG4/ISO/AVC Duration : 22 min 17 s Bit rate mode : Constant Bit rate : 9 464 kb/s Nominal bit rate : 10 000 kb/s Width : 1 920 pixels Height : 1 080 pixels Display aspect ratio : 16:9 Frame rate mode : Constant Frame rate : 23.976 (24000/1001) FPS Color space : YUV Chroma subsampling : 4:2:0 Bit depth : 8 bits Scan type : Progressive Bits/(Pixel*Frame) : 0.190 Stream size : 1.47 GiB (98%) Default : Yes Forced : No Color range : Limited Color primaries : BT.709 Transfer characteristics : BT.709 Matrix coefficients : BT.709 Audio ID : 2 Format : E-AC-3 Format/Info : Enhanced AC-3 Commercial name : Dolby Digital Plus Codec ID : A_EAC3 Duration : 22 min 17 s Bit rate mode : Constant Bit rate : 224 kb/s Channel(s) : 2 channels Channel layout : L R Sampling rate : 48.0 kHz Frame rate : 31.250 FPS (1536 SPF) Compression mode : Lossy Stream size : 35.7 MiB (2%) Title : 日本語 [オリジナル] Language : Japanese Service kind : Complete Main Default : Yes Forced : No
02/28 10:00 特摄连载
HD 1080p from Youtube official channel. English and Chinese subtitles added. General Unique ID : 34103511960123012833151956498352679554 (0x19A818F50EA80F2CA33D81C98883AA82) Complete name : [MagicStar] GARO - Hagane wo Tsugu Mono EP07 [WEBDL] [1080p] [YOUTUBE].mkv Format : Matroska Format version : Version 4 File size : 417 MiB Duration : 23 min 40 s Overall bit rate : 2 462 kb/s Frame rate : 23.976 FPS Encoded date : 2024-02-26 04:48:33 UTC Writing application : mkvmerge v50.0.0 ('Awakenings') 64-bit Writing library : libebml v1.4.0 + libmatroska v1.6.2 Video ID : 1 Format : AVC Format/Info : Advanced Video Codec Format profile : High@L4 Format settings : CABAC / 3 Ref Frames Format settings, CABAC : Yes Format settings, Reference fra : 3 frames Codec ID : V_MPEG4/ISO/AVC Duration : 23 min 40 s Bit rate : 2 332 kb/s Width : 1 920 pixels Height : 1 080 pixels Display aspect ratio : 16:9 Frame rate mode : Constant Frame rate : 23.976 (24000/1001) FPS Color space : YUV Chroma subsampling : 4:2:0 Bit depth : 8 bits Scan type : Progressive Bits/(Pixel*Frame) : 0.047 Stream size : 395 MiB (95%) Writing library : x264 core 155 r2901 7d0ff22 Default : Yes Forced : No Color range : Limited Color primaries : BT.709 Transfer characteristics : BT.709 Matrix coefficients : BT.709 Audio ID : 2 Format : AAC LC Format/Info : Advanced Audio Codec Low Complexity Codec ID : A_AAC-2 Duration : 23 min 40 s Bit rate : 128 kb/s Channel(s) : 2 channels Channel layout : L R Sampling rate : 44.1 kHz Frame rate : 43.066 FPS (1024 SPF) Compression mode : Lossy Stream size : 21.7 MiB (5%) Title : 日本語 [オリジナル] Language : Japanese Default : Yes Forced : No
02/27 18:00 特摄连载
HD from HULU JAPAN. General Unique ID : 281057980913676551769918322931343372905 (0xD371CC53E3F421860F347F9EB9953269) Complete name : GARO.Hagane.wo.Tsugu.Mono.EP07.HULU.WEB-DL.AAC2.0.H.264-MagicStar.mkv Format : Matroska Format version : Version 4 File size : 1.03 GiB Duration : 23 min 41 s Overall bit rate : 6 205 kb/s Frame rate : 23.976 FPS Encoded date : 2024-02-23 03:10:28 UTC Writing application : mkvmerge v50.0.0 ('Awakenings') 64-bit Writing library : libebml v1.4.0 + libmatroska v1.6.2 Cover : Yes Attachments : cover.png Video ID : 1 Format : AVC Format/Info : Advanced Video Codec Format profile : High@L4 Format settings : CABAC / 4 Ref Frames Format settings, CABAC : Yes Format settings, Reference fra : 4 frames Codec ID : V_MPEG4/ISO/AVC Duration : 23 min 41 s Bit rate : 5 949 kb/s Width : 1 600 pixels Height : 900 pixels Display aspect ratio : 16:9 Frame rate mode : Constant Frame rate : 23.976 (24000/1001) FPS Color space : YUV Chroma subsampling : 4:2:0 Bit depth : 8 bits Scan type : Progressive Bits/(Pixel*Frame) : 0.172 Stream size : 1 008 MiB (96%) Default : Yes Forced : No Color range : Limited Color primaries : BT.709 Transfer characteristics : BT.709 Matrix coefficients : BT.709 Audio ID : 2 Format : AAC LC Format/Info : Advanced Audio Codec Low Complexity Codec ID : A_AAC-2 Duration : 23 min 41 s Bit rate : 253 kb/s Channel(s) : 2 channels Channel layout : L R Sampling rate : 48.0 kHz Frame rate : 46.875 FPS (1024 SPF) Compression mode : Lossy Stream size : 42.9 MiB (4%) Title : 日本語 [オリジナル] Language : Japanese Default : Yes Forced : No
02/27 18:00 特摄连载
HD 1080p from U-NEXT. We are planning to upload all U-NEXT Dramas and Movies, we need your Support! Support Us Ali (Zhifubao / QR code): https://i.ibb.co/FWV2ggm/1660626347125.png PayPalMe: https://www.paypal.com/paypalme/sakuragikenji ETH (ERC20): 0xea3286E176099E8C9aBaf25A0edf231374C04E89 USDT (BTC / OMNI): 1Lemw6fu5vG3NdvWGxDxsPX7T7yUb3rNzu General Unique ID : 28057707636386108757353705706023774685 (0x151BB7CA4FBB9FAC8B897CB4FAC769DD) Complete name : GARO.Hagane.wo.Tsugu.Mono.EP07.1080p.U-NEXT.WEB-DL.AAC2.0.H.264-MagicStar.mkv Format : Matroska Format version : Version 4 File size : 701 MiB Duration : 23 min 42 s Overall bit rate : 4 138 kb/s Frame rate : 29.970 FPS Encoded date : 2024-02-23 03:05:42 UTC Writing application : mkvmerge v50.0.0 ('Awakenings') 64-bit Writing library : libebml v1.4.0 + libmatroska v1.6.2 Cover : Yes Attachments : cover.png Video ID : 1 Format : AVC Format/Info : Advanced Video Codec Format profile : Main@L4 Format settings : CABAC / 2 Ref Frames Format settings, CABAC : Yes Format settings, Reference fra : 2 frames Codec ID : V_MPEG4/ISO/AVC Duration : 23 min 41 s Bit rate : 4 020 kb/s Width : 1 920 pixels Height : 1 080 pixels Display aspect ratio : 16:9 Frame rate mode : Constant Frame rate : 29.970 (29970/1000) FPS Color space : YUV Chroma subsampling : 4:2:0 Bit depth : 8 bits Scan type : Progressive Bits/(Pixel*Frame) : 0.065 Stream size : 679 MiB (97%) Writing library : x264 core 148 r2665kMod a01e339 Encoding settings : cabac=1 / ref=2 / deblock=1:1:1 / analyse=0x1:0x111 / me=tesa / subme=11 / psy=1 / fade_compensate=0.00 / psy_rd=0.40:0.10 / mixed_ref=1 / me_range=48 / chroma_me=1 / trellis=2 / 8x8dct=0 / cqm=0 / deadzone=21,11 / fast_pskip=1 / chroma_qp_offset=-3 / threads=12 / lookahead_threads=1 / sliced_threads=0 / nr=0 / decimate=1 / interlaced=0 / bluray_compat=0 / constrained_intra=0 / fgo=0 / bframes=2 / b_pyramid=0 / b_adapt=2 / b_bias=0 / direct=3 / weightb=1 / open_gop=0 / weightp=2 / keyint=60 / keyint_min=31 / scenecut=0 / intra_refresh=0 / rc_lookahead=60 / rc=2pass / mbtree=1 / bitrate=4020 / ratetol=1.0 / qcomp=0.80 / qpmin=10 / qpmax=69 / qpstep=15 / cplxblur=20.0 / qblur=0.5 / vbv_maxrate=8050 / vbv_bufsize=8050 / nal_hrd=none / filler=0 / ip_ratio=1.40 / aq=2:0.60 Default : Yes Forced : No Audio ID : 2 Format : AAC LC Format/Info : Advanced Audio Codec Low Complexity Codec ID : A_AAC-2 Duration : 23 min 42 s Bit rate : 125 kb/s Channel(s) : 2 channels Channel layout : L R Sampling rate : 48.0 kHz Frame rate : 46.875 FPS (1024 SPF) Compression mode : Lossy Stream size : 21.3 MiB (3%) Title : 日本語 [オリジナル] Language : Japanese Default : Yes Forced : No
02/27 18:00 特摄连载
HD 1080p from TVer. General Unique ID : 147026229111490819267212700289338844876 (0x6E9C38C3028CC407D46D682E16D626CC) Complete name : [MagicStar] GARO - Hagane wo Tsugu Mono EP07 [WEBDL] [1080p].mkv Format : Matroska Format version : Version 4 File size : 489 MiB Duration : 23 min 40 s Overall bit rate : 2 885 kb/s Frame rate : 29.970 FPS Encoded date : 2024-02-23 02:59:47 UTC Writing application : mkvmerge v50.0.0 ('Awakenings') 64-bit Writing library : libebml v1.4.0 + libmatroska v1.6.2 Video ID : 1 Format : AVC Format/Info : Advanced Video Codec Format profile : High@L4 Format settings : CABAC / 4 Ref Frames Format settings, CABAC : Yes Format settings, Reference fra : 4 frames Codec ID : V_MPEG4/ISO/AVC Duration : 23 min 40 s Bit rate : 2 691 kb/s Width : 1 920 pixels Height : 1 080 pixels Display aspect ratio : 16:9 Frame rate mode : Constant Frame rate : 29.970 (29970/1000) FPS Original frame rate : 29.970 (30000/1001) FPS Color space : YUV Chroma subsampling : 4:2:0 Bit depth : 8 bits Scan type : Progressive Bits/(Pixel*Frame) : 0.043 Stream size : 456 MiB (93%) Writing library : Zencoder Video Encoding System Default : Yes Forced : No Color range : Limited Color primaries : BT.709 Transfer characteristics : BT.709 Matrix coefficients : BT.709 Audio ID : 2 Format : AAC LC Format/Info : Advanced Audio Codec Low Complexity Codec ID : A_AAC-2 Duration : 23 min 40 s Bit rate : 192 kb/s Channel(s) : 2 channels Channel layout : L R Sampling rate : 48.0 kHz Frame rate : 46.875 FPS (1024 SPF) Compression mode : Lossy Stream size : 32.5 MiB (7%) Title : 日本語 [オリジナル] Language : Japanese Default : Yes Forced : No
02/27 17:00 特摄连载
HD 1080p from Prime Video. Use CBR bitrate mode. Japanese dubbed version. We are planning to upload all Prime Video Japan Dramas and Movies, we need your Support! Support Us Ali (Zhifubao / QR code): https://i.ibb.co/FWV2ggm/1660626347125.png PayPalMe: https://www.paypal.com/paypalme/sakuragikenji ETH (ERC20): 0xea3286E176099E8C9aBaf25A0edf231374C04E89 USDT (BTC / OMNI): 1Lemw6fu5vG3NdvWGxDxsPX7T7yUb3rNzu General Unique ID : 315624367958355217866377296570964182617 (0xED730AC9E1067850245C8B05A0330659) Complete name : Armored.Saurus.S02EP16.1080p.AMZN.WEB-DL.DDP2.0.H.264.JPN.DUB-MagicStar.mkv Format : Matroska Format version : Version 4 File size : 1.45 GiB Duration : 24 min 24 s Overall bit rate mode : Constant Overall bit rate : 8 514 kb/s Frame rate : 23.976 FPS Encoded date : 2024-02-25 01:27:30 UTC Writing application : mkvmerge v50.0.0 ('Awakenings') 64-bit Writing library : libebml v1.4.0 + libmatroska v1.6.2 Cover : Yes Attachments : cover.jpg Video ID : 1 Format : AVC Format/Info : Advanced Video Codec Format profile : High@L4 Format settings : CABAC / 4 Ref Frames Format settings, CABAC : Yes Format settings, Reference fra : 4 frames Codec ID : V_MPEG4/ISO/AVC Duration : 24 min 24 s Bit rate mode : Constant Bit rate : 8 287 kb/s Nominal bit rate : 10 000 kb/s Width : 1 920 pixels Height : 1 080 pixels Display aspect ratio : 16:9 Frame rate mode : Constant Frame rate : 23.976 (24000/1001) FPS Color space : YUV Chroma subsampling : 4:2:0 Bit depth : 8 bits Scan type : Progressive Bits/(Pixel*Frame) : 0.167 Stream size : 1.41 GiB (97%) Default : Yes Forced : No Color range : Limited Color primaries : BT.709 Transfer characteristics : BT.709 Matrix coefficients : BT.709 Audio ID : 2 Format : E-AC-3 Format/Info : Enhanced AC-3 Commercial name : Dolby Digital Plus Codec ID : A_EAC3 Duration : 24 min 24 s Bit rate mode : Constant Bit rate : 224 kb/s Channel(s) : 2 channels Channel layout : L R Sampling rate : 48.0 kHz Frame rate : 31.250 FPS (1536 SPF) Compression mode : Lossy Stream size : 39.1 MiB (3%) Title : 日本語 [オリジナル] Language : Japanese Service kind : Complete Main Default : Yes Forced : No
02/27 17:00 特摄连载
HD 1080p from TTFC. General Unique ID : 209134490814598707144280795151486006488 (0x9D55D67BCA814C5D6E139EA21D19B4D8) Complete name : [MagicStar] Ohsama Sentai King-Ohger EP50 END [WEBDL] [1080p].mkv Format : Matroska Format version : Version 4 File size : 747 MiB Duration : 22 min 15 s Overall bit rate : 4 696 kb/s Frame rate : 23.976 FPS Writing application : Lavf57.48.101 Writing library : Lavf57.48.101 DATE : 2024-02-25T09:01:00.5142278+08:00 Video ID : 1 Format : AVC Format/Info : Advanced Video Codec Format profile : High@L4 Format settings : CABAC / 4 Ref Frames Format settings, CABAC : Yes Format settings, Reference fra : 4 frames Format settings, GOP : M=3, N=48 Codec ID : V_MPEG4/ISO/AVC Duration : 22 min 15 s Width : 1 920 pixels Height : 1 080 pixels Display aspect ratio : 16:9 Frame rate mode : Constant Frame rate : 23.976 (24000/1001) FPS Color space : YUV Chroma subsampling : 4:2:0 Bit depth : 8 bits Scan type : Progressive Writing library : x264 core 148 Encoding settings : cabac=1 / ref=4 / deblock=1:1:1 / analyse=0x3:0x113 / me=hex / subme=7 / psy=1 / psy_rd=0.40:0.00 / mixed_ref=1 / me_range=16 / chroma_me=1 / trellis=1 / 8x8dct=1 / cqm=0 / deadzone=21,11 / fast_pskip=1 / chroma_qp_offset=-2 / threads=30 / lookahead_threads=5 / sliced_threads=0 / nr=0 / decimate=1 / interlaced=0 / bluray_compat=0 / constrained_intra=0 / bframes=2 / b_pyramid=2 / b_adapt=0 / b_bias=0 / direct=1 / weightb=1 / open_gop=0 / weightp=2 / keyint=48 / keyint_min=25 / scenecut=0 / intra_refresh=0 / rc_lookahead=40 / rc=crf / mbtree=1 / crf=23.0 / qcomp=0.60 / qpmin=0 / qpmax=69 / qpstep=4 / vbv_maxrate=6000 / vbv_bufsize=6000 / crf_max=0.0 / nal_hrd=none / filler=0 / ip_ratio=1.40 / aq=1:0.60 Default : Yes Forced : No Audio ID : 2 Format : AAC LC Format/Info : Advanced Audio Codec Low Complexity Codec ID : A_AAC-2 Duration : 22 min 15 s Channel(s) : 2 channels Channel layout : L R Sampling rate : 48.0 kHz Frame rate : 46.875 FPS (1024 SPF) Compression mode : Lossy Delay relative to video : -42 ms Default : Yes Forced : No
02/25 10:00 特摄连载 约1条评论
HD 1080p from TTFC. General Unique ID : 79420398047999395567152770540342769820 (0x3BBFCFF18DF56C6893A51B3ADBA2789C) Complete name : [MagicStar] Kamen Rider Gotchard EP24 [WEBDL] [1080p].mkv Format : Matroska Format version : Version 4 File size : 561 MiB Duration : 23 min 15 s Overall bit rate : 3 372 kb/s Frame rate : 23.976 FPS Writing application : Lavf57.48.101 Writing library : Lavf57.48.101 DATE : 2024-02-25T08:31:03.0361476+08:00 Video ID : 1 Format : AVC Format/Info : Advanced Video Codec Format profile : High@L4 Format settings : CABAC / 4 Ref Frames Format settings, CABAC : Yes Format settings, Reference fra : 4 frames Format settings, GOP : M=3, N=48 Codec ID : V_MPEG4/ISO/AVC Duration : 23 min 15 s Width : 1 920 pixels Height : 1 080 pixels Display aspect ratio : 16:9 Frame rate mode : Constant Frame rate : 23.976 (24000/1001) FPS Color space : YUV Chroma subsampling : 4:2:0 Bit depth : 8 bits Scan type : Progressive Writing library : x264 core 148 Encoding settings : cabac=1 / ref=4 / deblock=1:1:1 / analyse=0x3:0x113 / me=hex / subme=7 / psy=1 / psy_rd=0.40:0.00 / mixed_ref=1 / me_range=16 / chroma_me=1 / trellis=1 / 8x8dct=1 / cqm=0 / deadzone=21,11 / fast_pskip=1 / chroma_qp_offset=-2 / threads=30 / lookahead_threads=5 / sliced_threads=0 / nr=0 / decimate=1 / interlaced=0 / bluray_compat=0 / constrained_intra=0 / bframes=2 / b_pyramid=2 / b_adapt=0 / b_bias=0 / direct=1 / weightb=1 / open_gop=0 / weightp=2 / keyint=48 / keyint_min=25 / scenecut=0 / intra_refresh=0 / rc_lookahead=40 / rc=crf / mbtree=1 / crf=23.0 / qcomp=0.60 / qpmin=0 / qpmax=69 / qpstep=4 / vbv_maxrate=6000 / vbv_bufsize=6000 / crf_max=0.0 / nal_hrd=none / filler=0 / ip_ratio=1.40 / aq=1:0.60 Default : Yes Forced : No Audio ID : 2 Format : AAC LC Format/Info : Advanced Audio Codec Low Complexity Codec ID : A_AAC-2 Duration : 23 min 15 s Channel(s) : 2 channels Channel layout : L R Sampling rate : 48.0 kHz Frame rate : 46.875 FPS (1024 SPF) Compression mode : Lossy Delay relative to video : -42 ms Default : Yes Forced : No
02/25 09:00 特摄连载
HD 1080p from Prime Video. Use CBR bitrate mode. We are planning to upload all Prime Video Japan Dramas and Movies, we need your Support! Support Us Ali (Zhifubao / QR code): https://i.ibb.co/FWV2ggm/1660626347125.png PayPalMe: https://www.paypal.com/paypalme/sakuragikenji ETH (ERC20): 0xea3286E176099E8C9aBaf25A0edf231374C04E89 USDT (BTC / OMNI): 1Lemw6fu5vG3NdvWGxDxsPX7T7yUb3rNzu General Unique ID : 302325343103202821404412841798368367170 (0xE371BE3D4E6B920DA18F9DF4E71E1242) Complete name : Ohsama.Sentai.King.Ohger.EP49.1080p.AMZN.WEB-DL.DDP2.0.H.264-MagicStar.mkv Format : Matroska Format version : Version 4 File size : 1.42 GiB Duration : 22 min 31 s Overall bit rate mode : Constant Overall bit rate : 9 004 kb/s Frame rate : 23.976 FPS Encoded date : 2024-02-21 01:58:33 UTC Writing application : mkvmerge v50.0.0 ('Awakenings') 64-bit Writing library : libebml v1.4.0 + libmatroska v1.6.2 Cover : Yes Attachments : cover.jpg Video ID : 1 Format : AVC Format/Info : Advanced Video Codec Format profile : High@L4 Format settings : CABAC / 4 Ref Frames Format settings, CABAC : Yes Format settings, Reference fra : 4 frames Codec ID : V_MPEG4/ISO/AVC Duration : 22 min 31 s Bit rate mode : Constant Bit rate : 8 775 kb/s Nominal bit rate : 10 000 kb/s Width : 1 920 pixels Height : 1 080 pixels Display aspect ratio : 16:9 Frame rate mode : Constant Frame rate : 23.976 (24000/1001) FPS Color space : YUV Chroma subsampling : 4:2:0 Bit depth : 8 bits Scan type : Progressive Bits/(Pixel*Frame) : 0.176 Stream size : 1.38 GiB (97%) Default : Yes Forced : No Color range : Limited Color primaries : BT.709 Transfer characteristics : BT.709 Matrix coefficients : BT.709 Audio ID : 2 Format : E-AC-3 Format/Info : Enhanced AC-3 Commercial name : Dolby Digital Plus Codec ID : A_EAC3 Duration : 22 min 31 s Bit rate mode : Constant Bit rate : 224 kb/s Channel(s) : 2 channels Channel layout : L R Sampling rate : 48.0 kHz Frame rate : 31.250 FPS (1536 SPF) Compression mode : Lossy Stream size : 36.1 MiB (2%) Title : 日本語 [オリジナル] Language : Japanese Service kind : Complete Main Default : Yes Forced : No
02/25 09:00 特摄连载
HD 1080p from TVer. Japanese subtitles added. General Unique ID : 135382311683244256047058439435709822838 (0x65D9AF4F202EE61F0E942621F5B7B776) Complete name : [MagicStar] Chikyuu no Arukikata EP06 [WEBDL] [1080p].mkv Format : Matroska Format version : Version 4 File size : 476 MiB Duration : 23 min 4 s Overall bit rate : 2 885 kb/s Frame rate : 29.970 FPS Encoded date : 2024-02-18 00:14:53 UTC Writing application : mkvmerge v50.0.0 ('Awakenings') 64-bit Writing library : libebml v1.4.0 + libmatroska v1.6.2 Video ID : 1 Format : AVC Format/Info : Advanced Video Codec Format profile : High@L4 Format settings : CABAC / 4 Ref Frames Format settings, CABAC : Yes Format settings, Reference fra : 4 frames Codec ID : V_MPEG4/ISO/AVC Duration : 23 min 3 s Bit rate : 2 691 kb/s Width : 1 920 pixels Height : 1 080 pixels Display aspect ratio : 16:9 Frame rate mode : Constant Frame rate : 29.970 (29970/1000) FPS Original frame rate : 29.970 (30000/1001) FPS Color space : YUV Chroma subsampling : 4:2:0 Bit depth : 8 bits Scan type : Progressive Bits/(Pixel*Frame) : 0.043 Stream size : 444 MiB (93%) Writing library : Zencoder Video Encoding System Default : Yes Forced : No Color range : Limited Color primaries : BT.709 Transfer characteristics : BT.709 Matrix coefficients : BT.709 Audio ID : 2 Format : AAC LC Format/Info : Advanced Audio Codec Low Complexity Codec ID : A_AAC-2 Duration : 23 min 4 s Bit rate : 192 kb/s Channel(s) : 2 channels Channel layout : L R Sampling rate : 48.0 kHz Frame rate : 46.875 FPS (1024 SPF) Compression mode : Lossy Stream size : 31.6 MiB (7%) Title : 日本語 [オリジナル] Language : Japanese Default : Yes Forced : No
02/20 01:08 日剧更新了
HD 1080p from Abema TV. Japanese subtitles added. General Unique ID : 203817040797974270980257211085202762882 (0x9955BBF4DA8DCA3D87C14178F35DAC82) Complete name : Rikon.Shinai.Otoko.Sareo.to.Oyome.no.Damashi.Ai.EP05.1080p.ABEMA-TV.WEB-DL.AAC2.0.H.264-MagicStar.mkv Format : Matroska Format version : Version 4 File size : 726 MiB Duration : 24 min 9 s Overall bit rate mode : Variable Overall bit rate : 4 201 kb/s Frame rate : 29.970 FPS Encoded date : 2024-02-18 01:36:28 UTC Writing application : mkvmerge v50.0.0 ('Awakenings') 64-bit Writing library : libebml v1.4.0 + libmatroska v1.6.2 Video ID : 1 Format : AVC Format/Info : Advanced Video Codec Format profile : [email protected] Format settings : CABAC / 4 Ref Frames Format settings, CABAC : Yes Format settings, Reference fra : 4 frames Codec ID : V_MPEG4/ISO/AVC Duration : 24 min 8 s Bit rate mode : Variable Bit rate : 4 005 kb/s Maximum bit rate : 40.0 Mb/s Width : 1 920 pixels Height : 1 080 pixels Display aspect ratio : 16:9 Frame rate mode : Constant Frame rate : 29.970 (29970/1000) FPS Original frame rate : 29.970 (30000/1001) FPS Color space : YUV Chroma subsampling : 4:2:0 Bit depth : 8 bits Scan type : Progressive Bits/(Pixel*Frame) : 0.064 Stream size : 692 MiB (95%) Default : Yes Forced : No Audio ID : 2 Format : AAC LC Format/Info : Advanced Audio Codec Low Complexity Codec ID : A_AAC-2 Duration : 24 min 9 s Bit rate : 192 kb/s Channel(s) : 2 channels Channel layout : L R Sampling rate : 44.1 kHz Frame rate : 43.066 FPS (1024 SPF) Compression mode : Lossy Stream size : 33.5 MiB (5%) Title : 日本語 [オリジナル] Language : Japanese Default : Yes Forced : No
02/20 01:08 日剧更新了
HD 1080p from TVer. Japanese subtitles added. General Unique ID : 68480215796404144958545523982637811011 (0x3384CF505DB91A403D6E71E4D7CD4543) Complete name : [MagicStar] Koisuru Keigo 24-ji EP06 [WEBDL] [1080p].mkv Format : Matroska Format version : Version 4 File size : 499 MiB Duration : 24 min 13 s Overall bit rate : 2 879 kb/s Frame rate : 29.970 FPS Encoded date : 2024-02-18 00:17:14 UTC Writing application : mkvmerge v50.0.0 ('Awakenings') 64-bit Writing library : libebml v1.4.0 + libmatroska v1.6.2 Video ID : 1 Format : AVC Format/Info : Advanced Video Codec Format profile : High@L4 Format settings : CABAC / 4 Ref Frames Format settings, CABAC : Yes Format settings, Reference fra : 4 frames Codec ID : V_MPEG4/ISO/AVC Duration : 24 min 13 s Bit rate : 2 685 kb/s Width : 1 920 pixels Height : 1 080 pixels Display aspect ratio : 16:9 Frame rate mode : Constant Frame rate : 29.970 (29970/1000) FPS Original frame rate : 29.970 (30000/1001) FPS Color space : YUV Chroma subsampling : 4:2:0 Bit depth : 8 bits Scan type : Progressive Bits/(Pixel*Frame) : 0.043 Stream size : 465 MiB (93%) Writing library : Zencoder Video Encoding System Default : Yes Forced : No Color range : Limited Matrix coefficients : BT.709 Audio ID : 2 Format : AAC LC Format/Info : Advanced Audio Codec Low Complexity Codec ID : A_AAC-2 Duration : 24 min 13 s Bit rate : 192 kb/s Channel(s) : 2 channels Channel layout : L R Sampling rate : 48.0 kHz Frame rate : 46.875 FPS (1024 SPF) Compression mode : Lossy Stream size : 33.1 MiB (7%) Title : 日本語 [オリジナル] Language : Japanese Default : Yes Forced : No
02/20 01:07 日剧更新了
HD 1080p from HULU JAPAN Original Series. General Unique ID : 54057246869766787489353896320695057856 (0x28AB0C0B30E7EDDABF116EC50C3CBDC0) Complete name : Kimi.to.Sekai.ga.Owaru.Hi.ni.S05EP02.1080p.HULU.WEB-DL.AAC2.0.H.264-MagicStar.mkv Format : Matroska Format version : Version 4 File size : 1.89 GiB Duration : 43 min 21 s Overall bit rate : 6 234 kb/s Frame rate : 29.970 FPS Encoded date : 2024-02-18 01:45:58 UTC Writing application : mkvmerge v50.0.0 ('Awakenings') 64-bit Writing library : libebml v1.4.0 + libmatroska v1.6.2 Cover : Yes Attachments : cover.png Video ID : 1 Format : AVC Format/Info : Advanced Video Codec Format profile : High@L4 Format settings : CABAC / 4 Ref Frames Format settings, CABAC : Yes Format settings, Reference fra : 4 frames Codec ID : V_MPEG4/ISO/AVC Duration : 43 min 21 s Bit rate : 5 977 kb/s Width : 1 920 pixels Height : 1 080 pixels Display aspect ratio : 16:9 Frame rate mode : Constant Frame rate : 29.970 (29970/1000) FPS Original frame rate : 29.970 (30000/1001) FPS Color space : YUV Chroma subsampling : 4:2:0 Bit depth : 8 bits Scan type : Progressive Bits/(Pixel*Frame) : 0.096 Stream size : 1.81 GiB (96%) Default : Yes Forced : No Color range : Limited Color primaries : BT.709 Transfer characteristics : BT.709 Matrix coefficients : BT.709 Audio ID : 2 Format : AAC LC Format/Info : Advanced Audio Codec Low Complexity Codec ID : A_AAC-2 Duration : 43 min 21 s Bit rate : 253 kb/s Channel(s) : 2 channels Channel layout : L R Sampling rate : 48.0 kHz Frame rate : 46.875 FPS (1024 SPF) Compression mode : Lossy Stream size : 78.6 MiB (4%) Title : 日本語 [オリジナル] Language : Japanese Default : Yes Forced : No
02/20 01:07 日剧更新了 约1条评论
[美国][剧情/奇幻/冒险][权力的游戏第八季 Game.of.Thrones.S08(全06集)][WEBRip-MKV/2G][中英字幕] ◎译  名 权力的游戏 第八季/Game of Thrones: The Final Season/权游8 ◎片  名 Game of Thrones Season 8 ◎年  代 2019 ◎产  地  美国 ◎类  别 剧情/奇幻/冒险 ◎语  言  英语 ◎官方主页  http://www.hbo.com/game-of-thrones ◎上映日期 2019-04-14(美国) ◎整理链接 http://bbs.homefei.me/read-htm-tid-184747.html ◎IMDb评分 9.5/10 from 1,437,376 users ◎IMDb链接 http://www.imdb.com/title/tt0944947 ◎豆瓣评分 9.8/10 from 8,792 users ◎豆瓣链接  https://movie.douban.com/subject/26584183/ ◎集  数 6 ◎片  长 60分钟(E1-E2) / 80分钟(E3-E6) ◎导  演 米格尔·萨普什尼克 Miguel Sapochnik / 大卫·努特尔 David Nutter / 戴维·贝尼奥夫 David Benioff / D·B·威斯 D.B. Weiss ◎编  剧 戴维·贝尼奥夫 David Benioff / D·B·威斯 D.B. Weiss / 乔治·马丁 George R.R. Martin ◎主  演 艾米莉亚·克拉克 Emilia Clarke 基特·哈灵顿 Kit Harington 彼特·丁拉基 Peter Dinklage 苏菲·特纳 Sophie Turner 麦茜·威廉姆斯 Maisie Williams 琳娜·海蒂 Lena Headey 伊萨克·亨普斯特德-怀特 Isaac Hempstead-Wright 尼古拉·科斯特-瓦尔道 Nikolaj Coster-Waldau 约翰·C·布莱德利 John C. Bradley 阿尔菲·艾伦 Alfie Allen 皮鲁·埃斯贝克 Pilou Asbæk 格温多兰·克里斯蒂 Gwendoline Christie 利亚姆·坎宁安 Liam Cunningham ◎简  介 HBO剧集《权力的游戏》第八季将于2019年4月14日播出,本季共6集。 故事发展至第八季,重返临冬城的琼恩·雪诺(基特·哈灵顿 Kit Harington 饰)在布兰·史塔克(伊萨克·亨普斯特德-怀特 Isaac Hempstead-Wright 饰)口中得知了自己身世的 秘密 ,让他与丹妮莉丝·塔格利安(艾米莉亚·克拉克 Emilia Clarke 饰)的关系蒙上了一层冰霜。 詹姆·兰尼斯特(尼古拉·科斯特-瓦尔道 Nikolaj Coster-Waldau 饰)试图召集河间地驻军北伐异鬼,却发现艾德慕·徒利(托比亚斯·门基斯 Tobias Menzies 饰)已经包围你了奔流城。 攸伦·葛雷乔伊(皮鲁·埃斯贝克 Pilou Asbæ 饰)将黄金团带至君临获取了瑟曦(琳娜·海蒂 Lena Headey 饰)的信任,而实际上,他已经与无面者贾昆·赫加尔(汤姆·拉斯齐哈 Tom Wlaschiha 饰)私下达成了秘密协议。 ◎获奖情况 第5届豆瓣 电影 年度榜单 ( 2018 ) 最值得期待的剧集(提名) 第一集磁力链接: magnet:?xt=urn:btih:cb4b612b6259ff87fc9322b6c71867ba107cc841&xl=2130707465 第二集磁力链接: magnet:?xt=urn:btih:08f53f5768c41bd73d266286fedfacbbe05817a9&xl=2285896713 第三集磁力链接: magnet:?xt=urn:btih:4E27CC34832CE75CDF652C0BA51FFB6B45C66CB2 第四集磁力链接: magnet:?xt=urn:btih:B54F70152F7BE160E9FDBC9105A1EBF25BB93921 第五集磁力链接: magnet:?xt=urn:btih:11732BCFE7553549FBD24C30280FFA427F9F03F9 第六集磁力链接: magnet:?xt=urn:btih:C713C1C992DEB0F5A048BED219C00DC676F353BA
05/20 21:03 飘域家园 (讨论)
[美国][剧情/奇幻/冒险][权力的游戏第八季 Game.of.Thrones.S08(更新05集)][WEBRip-MKV/2G][中英字幕] ◎译  名 权力的游戏 第八季/Game of Thrones: The Final Season/权游8 ◎片  名 Game of Thrones Season 8 ◎年  代 2019 ◎产  地  美国 ◎类  别 剧情/奇幻/冒险 ◎语  言  英语 ◎官方主页  http://www.hbo.com/game-of-thrones ◎上映日期 2019-04-14(美国) ◎整理链接 http://bbs.homefei.me/read-htm-tid-184747.html ◎IMDb评分 9.5/10 from 1,437,376 users ◎IMDb链接 http://www.imdb.com/title/tt0944947 ◎豆瓣评分 9.8/10 from 8,792 users ◎豆瓣链接  https://movie.douban.com/subject/26584183/ ◎集  数 6 ◎片  长 60分钟(E1-E2) / 80分钟(E3-E6) ◎导  演 米格尔·萨普什尼克 Miguel Sapochnik / 大卫·努特尔 David Nutter / 戴维·贝尼奥夫 David Benioff / D·B·威斯 D.B. Weiss ◎编  剧 戴维·贝尼奥夫 David Benioff / D·B·威斯 D.B. Weiss / 乔治·马丁 George R.R. Martin ◎主  演 艾米莉亚·克拉克 Emilia Clarke 基特·哈灵顿 Kit Harington 彼特·丁拉基 Peter Dinklage 苏菲·特纳 Sophie Turner 麦茜·威廉姆斯 Maisie Williams 琳娜·海蒂 Lena Headey 伊萨克·亨普斯特德-怀特 Isaac Hempstead-Wright 尼古拉·科斯特-瓦尔道 Nikolaj Coster-Waldau 约翰·C·布莱德利 John C. Bradley 阿尔菲·艾伦 Alfie Allen 皮鲁·埃斯贝克 Pilou Asbæk 格温多兰·克里斯蒂 Gwendoline Christie 利亚姆·坎宁安 Liam Cunningham ◎简  介 HBO剧集《权力的游戏》第八季将于2019年4月14日播出,本季共6集。 故事发展至第八季,重返临冬城的琼恩·雪诺(基特·哈灵顿 Kit Harington 饰)在布兰·史塔克(伊萨克·亨普斯特德-怀特 Isaac Hempstead-Wright 饰)口中得知了自己身世的 秘密 ,让他与丹妮莉丝·塔格利安(艾米莉亚·克拉克 Emilia Clarke 饰)的关系蒙上了一层冰霜。 詹姆·兰尼斯特(尼古拉·科斯特-瓦尔道 Nikolaj Coster-Waldau 饰)试图召集河间地驻军北伐异鬼,却发现艾德慕·徒利(托比亚斯·门基斯 Tobias Menzies 饰)已经包围你了奔流城。 攸伦·葛雷乔伊(皮鲁·埃斯贝克 Pilou Asbæ 饰)将黄金团带至君临获取了瑟曦(琳娜·海蒂 Lena Headey 饰)的信任,而实际上,他已经与无面者贾昆·赫加尔(汤姆·拉斯齐哈 Tom Wlaschiha 饰)私下达成了秘密协议。 ◎获奖情况 第5届豆瓣 电影 年度榜单 ( 2018 ) 最值得期待的剧集(提名) 第一集磁力链接: magnet:?xt=urn:btih:cb4b612b6259ff87fc9322b6c71867ba107cc841&xl=2130707465 第二集磁力链接: magnet:?xt=urn:btih:08f53f5768c41bd73d266286fedfacbbe05817a9&xl=2285896713 第三集磁力链接: magnet:?xt=urn:btih:4E27CC34832CE75CDF652C0BA51FFB6B45C66CB2 第四集磁力链接: magnet:?xt=urn:btih:B54F70152F7BE160E9FDBC9105A1EBF25BB93921 第五集磁力链接: magnet:?xt=urn:btih:11732BCFE7553549FBD24C30280FFA427F9F03F9
05/13 19:54 飘域家园 (讨论)
[美国][剧情/奇幻/冒险][权力的游戏第八季 Game.of.Thrones.S08(更新04集)][WEBRip-MKV/2G][中英字幕] ◎译  名 权力的游戏 第八季/Game of Thrones: The Final Season/权游8 ◎片  名 Game of Thrones Season 8 ◎年  代 2019 ◎产  地  美国 ◎类  别 剧情/奇幻/冒险 ◎语  言  英语 ◎官方主页  http://www.hbo.com/game-of-thrones ◎上映日期 2019-04-14(美国) ◎整理链接 http://bbs.homefei.me/read-htm-tid-184747.html ◎IMDb评分 9.5/10 from 1,437,376 users ◎IMDb链接 http://www.imdb.com/title/tt0944947 ◎豆瓣评分 9.8/10 from 8,792 users ◎豆瓣链接  https://movie.douban.com/subject/26584183/ ◎集  数 6 ◎片  长 60分钟(E1-E2) / 80分钟(E3-E6) ◎导  演 米格尔·萨普什尼克 Miguel Sapochnik / 大卫·努特尔 David Nutter / 戴维·贝尼奥夫 David Benioff / D·B·威斯 D.B. Weiss ◎编  剧 戴维·贝尼奥夫 David Benioff / D·B·威斯 D.B. Weiss / 乔治·马丁 George R.R. Martin ◎主  演 艾米莉亚·克拉克 Emilia Clarke 基特·哈灵顿 Kit Harington 彼特·丁拉基 Peter Dinklage 苏菲·特纳 Sophie Turner 麦茜·威廉姆斯 Maisie Williams 琳娜·海蒂 Lena Headey 伊萨克·亨普斯特德-怀特 Isaac Hempstead-Wright 尼古拉·科斯特-瓦尔道 Nikolaj Coster-Waldau 约翰·C·布莱德利 John C. Bradley 阿尔菲·艾伦 Alfie Allen 皮鲁·埃斯贝克 Pilou Asbæk 格温多兰·克里斯蒂 Gwendoline Christie 利亚姆·坎宁安 Liam Cunningham ◎简  介 HBO剧集《权力的游戏》第八季将于2019年4月14日播出,本季共6集。 故事发展至第八季,重返临冬城的琼恩·雪诺(基特·哈灵顿 Kit Harington 饰)在布兰·史塔克(伊萨克·亨普斯特德-怀特 Isaac Hempstead-Wright 饰)口中得知了自己身世的 秘密 ,让他与丹妮莉丝·塔格利安(艾米莉亚·克拉克 Emilia Clarke 饰)的关系蒙上了一层冰霜。 詹姆·兰尼斯特(尼古拉·科斯特-瓦尔道 Nikolaj Coster-Waldau 饰)试图召集河间地驻军北伐异鬼,却发现艾德慕·徒利(托比亚斯·门基斯 Tobias Menzies 饰)已经包围你了奔流城。 攸伦·葛雷乔伊(皮鲁·埃斯贝克 Pilou Asbæ 饰)将黄金团带至君临获取了瑟曦(琳娜·海蒂 Lena Headey 饰)的信任,而实际上,他已经与无面者贾昆·赫加尔(汤姆·拉斯齐哈 Tom Wlaschiha 饰)私下达成了秘密协议。 ◎获奖情况 第5届豆瓣 电影 年度榜单 ( 2018 ) 最值得期待的剧集(提名) 第一集磁力链接: magnet:?xt=urn:btih:cb4b612b6259ff87fc9322b6c71867ba107cc841&xl=2130707465 第二集磁力链接: magnet:?xt=urn:btih:08f53f5768c41bd73d266286fedfacbbe05817a9&xl=2285896713 第三集磁力链接: magnet:?xt=urn:btih:4E27CC34832CE75CDF652C0BA51FFB6B45C66CB2 第四集磁力链接: magnet:?xt=urn:btih:B54F70152F7BE160E9FDBC9105A1EBF25BB93921
05/06 19:32 飘域家园 (讨论)
[美国][剧情/奇幻/冒险][权力的游戏第八季 Game.of.Thrones.S08E01-02(更新02集)][WEBRip-MKV/2G][中英字幕] ◎译  名 权力的游戏 第八季/Game of Thrones: The Final Season/权游8 ◎片  名 Game of Thrones Season 8 ◎年  代 2019 ◎产  地  美国 ◎类  别 剧情/奇幻/冒险 ◎语  言  英语 ◎官方主页  http://www.hbo.com/game-of-thrones ◎上映日期 2019-04-14(美国) ◎整理链接 http://bbs.homefei.me/read-htm-tid-184747.html ◎IMDb评分 9.5/10 from 1,437,376 users ◎IMDb链接 http://www.imdb.com/title/tt0944947 ◎豆瓣评分 9.8/10 from 8,792 users ◎豆瓣链接  https://movie.douban.com/subject/26584183/ ◎集  数 6 ◎片  长 60分钟(E1-E2) / 80分钟(E3-E6) ◎导  演 米格尔·萨普什尼克 Miguel Sapochnik / 大卫·努特尔 David Nutter / 戴维·贝尼奥夫 David Benioff / D·B·威斯 D.B. Weiss ◎编  剧 戴维·贝尼奥夫 David Benioff / D·B·威斯 D.B. Weiss / 乔治·马丁 George R.R. Martin ◎主  演 艾米莉亚·克拉克 Emilia Clarke 基特·哈灵顿 Kit Harington 彼特·丁拉基 Peter Dinklage 苏菲·特纳 Sophie Turner 麦茜·威廉姆斯 Maisie Williams 琳娜·海蒂 Lena Headey 伊萨克·亨普斯特德-怀特 Isaac Hempstead-Wright 尼古拉·科斯特-瓦尔道 Nikolaj Coster-Waldau 约翰·C·布莱德利 John C. Bradley 阿尔菲·艾伦 Alfie Allen 皮鲁·埃斯贝克 Pilou Asbæk 格温多兰·克里斯蒂 Gwendoline Christie 利亚姆·坎宁安 Liam Cunningham ◎简  介 HBO剧集《权力的游戏》第八季将于2019年4月14日播出,本季共6集。 故事发展至第八季,重返临冬城的琼恩·雪诺(基特·哈灵顿 Kit Harington 饰)在布兰·史塔克(伊萨克·亨普斯特德-怀特 Isaac Hempstead-Wright 饰)口中得知了自己身世的 秘密 ,让他与丹妮莉丝·塔格利安(艾米莉亚·克拉克 Emilia Clarke 饰)的关系蒙上了一层冰霜。 詹姆·兰尼斯特(尼古拉·科斯特-瓦尔道 Nikolaj Coster-Waldau 饰)试图召集河间地驻军北伐异鬼,却发现艾德慕·徒利(托比亚斯·门基斯 Tobias Menzies 饰)已经包围你了奔流城。 攸伦·葛雷乔伊(皮鲁·埃斯贝克 Pilou Asbæ 饰)将黄金团带至君临获取了瑟曦(琳娜·海蒂 Lena Headey 饰)的信任,而实际上,他已经与无面者贾昆·赫加尔(汤姆·拉斯齐哈 Tom Wlaschiha 饰)私下达成了秘密协议。 ◎获奖情况 第5届豆瓣 电影 年度榜单 ( 2018 ) 最值得期待的剧集(提名) 第一集磁力链接: magnet:?xt=urn:btih:cb4b612b6259ff87fc9322b6c71867ba107cc841&xl=2130707465 第二集磁力链接: magnet:?xt=urn:btih:08f53f5768c41bd73d266286fedfacbbe05817a9&xl=2285896713
04/22 19:15 飘域家园 (讨论) 约1条评论
[美国][剧情/奇幻/冒险][权力的游戏第八季 Game.of.Thrones.S08E01(更新01集)][WEBRip-MKV/2G][中英字幕] ◎译  名 权力的游戏 第八季/Game of Thrones: The Final Season/权游8 ◎片  名 Game of Thrones Season 8 ◎年  代 2019 ◎产  地  美国 ◎类  别 剧情/奇幻/冒险 ◎语  言  英语 ◎官方主页  http://www.hbo.com/game-of-thrones ◎上映日期 2019-04-14(美国) ◎整理链接 http://bbs.homefei.me/read-htm-tid-184747.html ◎IMDb评分 9.5/10 from 1,437,376 users ◎IMDb链接 http://www.imdb.com/title/tt0944947 ◎豆瓣评分 9.8/10 from 8,792 users ◎豆瓣链接  https://movie.douban.com/subject/26584183/ ◎集  数 6 ◎片  长 60分钟(E1-E2) / 80分钟(E3-E6) ◎导  演 米格尔·萨普什尼克 Miguel Sapochnik / 大卫·努特尔 David Nutter / 戴维·贝尼奥夫 David Benioff / D·B·威斯 D.B. Weiss ◎编  剧 戴维·贝尼奥夫 David Benioff / D·B·威斯 D.B. Weiss / 乔治·马丁 George R.R. Martin ◎主  演 艾米莉亚·克拉克 Emilia Clarke 基特·哈灵顿 Kit Harington 彼特·丁拉基 Peter Dinklage 苏菲·特纳 Sophie Turner 麦茜·威廉姆斯 Maisie Williams 琳娜·海蒂 Lena Headey 伊萨克·亨普斯特德-怀特 Isaac Hempstead-Wright 尼古拉·科斯特-瓦尔道 Nikolaj Coster-Waldau 约翰·C·布莱德利 John C. Bradley 阿尔菲·艾伦 Alfie Allen 皮鲁·埃斯贝克 Pilou Asbæk 格温多兰·克里斯蒂 Gwendoline Christie 利亚姆·坎宁安 Liam Cunningham ◎简  介 HBO剧集《权力的游戏》第八季将于2019年4月14日播出,本季共6集。 故事发展至第八季,重返临冬城的琼恩·雪诺(基特·哈灵顿 Kit Harington 饰)在布兰·史塔克(伊萨克·亨普斯特德-怀特 Isaac Hempstead-Wright 饰)口中得知了自己身世的 秘密 ,让他与丹妮莉丝·塔格利安(艾米莉亚·克拉克 Emilia Clarke 饰)的关系蒙上了一层冰霜。 詹姆·兰尼斯特(尼古拉·科斯特-瓦尔道 Nikolaj Coster-Waldau 饰)试图召集河间地驻军北伐异鬼,却发现艾德慕·徒利(托比亚斯·门基斯 Tobias Menzies 饰)已经包围你了奔流城。 攸伦·葛雷乔伊(皮鲁·埃斯贝克 Pilou Asbæ 饰)将黄金团带至君临获取了瑟曦(琳娜·海蒂 Lena Headey 饰)的信任,而实际上,他已经与无面者贾昆·赫加尔(汤姆·拉斯齐哈 Tom Wlaschiha 饰)私下达成了秘密协议。 ◎获奖情况 第5届豆瓣 电影 年度榜单 ( 2018 ) 最值得期待的剧集(提名) 磁力链接: magnet:?xt=urn:btih:cb4b612b6259ff87fc9322b6c71867ba107cc841&xl=2130707465
04/15 20:32 飘域家园 (讨论)
[中国][战争/历史][辛亥革命1911 Revolution 2011][BD-MKV/3G][中英字幕][赵文瑄/孙淳/成龙/姜武/李冰冰] 【中 文 名】 辛亥革命 【外 文 名】 Xin Hai Ge Ming 【译 名】 1911辛亥革命 【出品时间】 2011年 【出品公司】上海东方影视发行有限责任公司 【制片地区】 中国 【制片成本】 $30,000,000/estimated 【拍摄地点】 浙江横店影视城 【导 演】 张黎,成龙 【编 剧】 王兴东,陈宝光 【制 片 人】 汪天云,毕述林,王浙滨 【类 型】 战争/历史 【主 演】 赵文瑄,孙淳,成龙,姜武,黄志忠,李冰冰 【片 长】 120分钟 【上映时间】 2011年9月23日 【语言字幕】 粤语/中英字幕 【海外发行】 北京耀莱国际文化产业有限公司 【整理链接】 http://bbs.homefei.me/read-htm-tid-183593.html 【 剧情 简介】 《辛亥革命》是由张黎和成龙执导,赵文瑄、李冰冰、陈冲、孙淳、房祖名、胡歌、余少群、杜宇航等主演的革命 战争 片。该片讲述了晚清末年,内忧外患,中华民族到了危亡之际。改良派维新变法运动的失败,孙中山为首的革命派,决心以革命推翻清政府,建立共和体制的故事。该片于2011年9月23日在中国内地公映。 晚清末年,内忧外患,中华民族到了危亡之际。改良派维新变法运动的失败,孙中山为首的革命派,决心以革命推翻清政府,建立共和体制。 1895到1910年,革命党人先后发动了多次起义,秋瑾、徐锡麟等一批革命党先驱先后牺牲,革命陷入低潮。 1910年底,孙中山再次在海外召集同盟会骨干,组织力量准备在广州发动起义黄兴与徐宗汉假扮夫妇, 秘密 潜入广州。然而广州之战终因革命党人寡不敌众而告负,林觉民等一大批革命骨干壮烈牺牲,黄兴也身负重伤。徐宗汉等冒死收葬了烈士遗体72具,葬于广州城外的黄花岗。 经过这次的起义,清政府对革命党人进行了血腥镇压,同时积极寻求与帝国主义的卖国交易。 在四川,清廷又一次丧权辱国的行为,引发了轰轰烈烈的保路运动,湖北新军被紧急抽调前去镇压。在武昌,新军当中的革命党名单泄露,湖广总督瑞澂开始对名单上的革命党人逐一捕杀,革命形势十分危急,革命党人熊秉坤、金兆龙等愤然打响了革命第一枪。经过一夜激战,武昌起义的革命军攻占了总督府,黎元洪被革命军将士紧急推为军政府都督。 武昌起义成功,举国震惊,消息传到 美国 ,孙中山和同盟会成员欢欣鼓舞。立即派黄兴和徐宗汉赶到武昌战场,大大振奋了革命军士气。不惜以热血和生命保卫飘扬着革命红旗的武汉三镇。经过这么多血与火的洗礼,黄兴和徐宗汉的感情不断升华,两人决定结为革命夫妻继续比并肩战斗。 风雨飘渺的清廷只好请袁世凯出山,率北洋军镇压革命。袁世凯一方面镇压革命军,另一方面仍试图在各方势力的博弈中,暗地里通过革命党人汪精卫传达与革命党和谈的愿望。 革命的危急关头,孙中山奔赴海外,力排众议,最终说服西方列国财团,不再借贷款支持清廷。 阳夏保卫战打得异常惨烈,黄兴和黎元洪艰难支撑,在各种反动势力的夹击下,黄兴毅然决定率部撤往长江下游,集聚力量,以图大业。 长江战舰在行进中,传来了多省宣布独立的消息,黄兴等备受鼓舞。 自此,革命形势进入了南北对峙的局面,经过多方努力,南北代表唐绍仪和伍廷芳终于坐下来会谈,经过艰难谈判,双方达成共识,支持建立共和政体;经过十八省代表的公开民主选举,孙中山被推选为首任大总统。孙中山表示,只要袁世凯敦促清帝退位,他即可让位,由逼退清让位的人,出任中华民国大总统。 【电影 截图 】 磁力链接: magnet:?xt=urn:btih:eafdf760d5551860f6a6f0af02c20fa51d53a00c&xl=3321889801
03/23 10:57 飘域家园 (讨论)
ITZMX TCP Acceleration v1.3,TCP协议加速器,Windows 电脑 BT、PT种子上传下载加速,https、pcdn、iis web服务器网络优化加速,更新来啦 不了解这是什么软件,可以先阅读先前1.0版的帖子,避免重复阅读则不在另外发为什么这软件能大幅度加速宽带网络的原理: https://bbs.itzmx.com/thread-99515-1-1.html 注意:本软件“ITZMX TCP Acceleration”文件夹内的任何文件都不能修改,修改任何文件将导致本软件无法正常运行!这不是开玩笑的! 注意:本软件“ITZMX TCP Acceleration”文件夹内的任何文件都不能修改,修改任何文件将导致本软件无法正常运行!这不是开玩笑的! 注意:本软件“ITZMX TCP Acceleration”文件夹内的任何文件都不能修改,修改任何文件将导致本软件无法正常运行!这不是开玩笑的! 安装说明: 1、拷贝“ITZMX TCP Acceleration”文件夹到“C:\Program Files\”目录下。 2、运行“install.bat”自动安装。如果出现红色弹框请务必点“始终安装此驱动程序软件”,只会出现一次。 3、运行“ITZMXAcceleratorUI.exe”启动,启动后在桌面右下角托盘处找到它。 4、默认开机自动启动。更多功能请在桌面右下角托盘处的图标上点击鼠标右键查看。 卸载说明: 1、运行“Uninstall.bat”将会完全卸载本软件,包括注册表残留一并卸载。 2、直接删除“ITZMX TCP Acceleration”文件夹即可完成最终卸载。 更新日志: v1.3 (2024/02/20) 兼容2024年2月最新Windows10、11 系统更新补丁。 v1.2 (2022/07/05) 优化了对驱动级游戏反作弊程序的兼容性。 优化了2022年5月11日最新Windows10(19044.1706)、11(22000.675)≥系统更新补丁的兼容性。 v1.1 (2022/04/18) 优化了对驱动级游戏反作弊程序的兼容性。 兼容Win7 ~ Win11的x64系统。 兼容Windows Server 2008 ~ Windows Server 2022的x64系统。 修复了卸载时不卸载自动启动项的BUG。 v1.0 (2022/01/01) 首发。 祝大家元宵节快乐^_^ Wishing a very Happy Lantern Festival to everyone ^_^ 下载地址: https://bbs.itzmx.com/thread-105336-1-1.html
02/20 08:00 五花八门
Clip Studio Paint EX v2.3.4 多国语言特别版 CSP绘图软件日本2D、3D建模区域解锁 免责声明:本补丁仅供学习技术交流,请勿用于商业及非法用途,请下载后5分钟内删除,作者不承担因补丁带来的任何责任,运行本补丁即默认同意以上声明。 注意:禁止在任何地方出售该补丁。包括但不限于闲鱼、淘宝、以需要积分才能下载的方式分享该补丁、需要充值会员VIP或使用积分才能下载的 论坛 或网站。如果是付费购买到该补丁,请立即退款举报差评。一切责任与后果由出售该补丁者独自承担。祝盗卖者:赚钱少少,退款多多:) 补丁说明(更新历史、更新日志): 1、解除区域限制,默认官方繁体中文(官方无简体中文) 2、破解EX版无限制永久使用 3、支持登录官方账号使用官方云服务 4、不再联网验证授权,永远不会画到一半就卡 5、加速退出时释放内存过程,关闭程序速度加快 6、剥离所有注册相关代码,静享丝滑!!! 7、更加完善,且不再需要替换"Config.sqlite"文件 8、中国大陆地区版本限定特典:加入不定期不定时弹框“付费购买退款差评”提示内容为注意里的内容,提示3次后永久不再提示。如有打扰请见谅。 9、退出时以强制杀进程的方式结束进程,关闭时再也不会卡几秒了 10、优化第9项,以稍微不那么暴力的方式结束进程,为了兼容某些安装了第三方杀毒软件的PC。 11、优化第8项,为了让用户认真看字,随机弹框的次数从3次改为1次,并且在弹窗出现的10秒内强制无法关闭,需等待10秒后自动关闭,关闭后永久不再提示。 12、去除中国大陆地区版本随机弹窗,方便录视频教程的小画家们。 13、中国大陆地区版本特供版新增启动密码防盗卖,正确输入一次后无需再次输入,永无打扰,但下次更新需再次输入。 14、最近发现某宝某鱼竟然有人贩卖装好该版本的虚拟机文件!这个版本(1.11.14)给你一次端正态度的机会。再有下个版本增加“禁止在虚拟机中运行”的功能。 15、优化以更好的适配Windows 11系统。 16、简体中文补丁正式版已集成,翻译了99%的繁体中文,未改变任何词义,只为方便看不懂繁体字的小画师们使用。 17、初次启动可能会弹出数据收集相关窗口,请查看图片“RM01.png”对照设置。 18、启动不再需要输入启动密码,永久加入防盗卖启动画面,每次启动时强制显示5秒后自动关闭,不可手动关闭。 19、防盗卖启动界面显示时间变更为3.4秒,同时提供"启动画面版本"和"启动水印版本"两种补丁,启动界面样式不同,功能完全一样。 20、完善简体中文补丁,把滤镜菜单简体中文化,多国语言(Multilanguage)补丁已完全移除了中文,需要中文请务必使用中文补丁。 21、优化略微加快了启动关闭程序的速度。 22、由于启动水印版补丁的启动水印不明显,导致还有人敢贩卖,从v2.0.0起不再提供启动水印版补丁,只提供启动画面版补丁。 23、添加"Official Simplified Chinese"以CSP官方在移动端的简体中文为蓝本制作的PC简体中文补丁,更符合中国大陆本地词汇语言习惯。 24、彻底修复了滤镜缺失问题,由于淘宝闲鱼盗卖贩子越发猖狂,今后不再给滤镜做简体字补丁。 25、为减少工作量,不再提供繁体字转简体字补丁,今后的简体字补丁只提供以CSP官方在移动端的简体中文为蓝本制作的PC简体中文补丁。 26、加入防盗卖文档,第一次安装的用户在第一次启动CSP后的20分钟后到48小时内,有30%的概率随机自动打开一次防盗卖文档,之后不再有任何打扰。 27、加入了某位神秘画师提供的白毛兽耳萝莉女仆启动画面图,上个启动CSP娘启动画面也一并保留同时提供。 28、修复了诟病已久的关闭无响应BUG,可能偶尔还会触发,但比之前能更快关闭,请放心,只要按过Ctrl+S保存后绝对不会丢工程,要经常按哦。 29、再次优化了简体字,使其比“优动漫”的简体字更标准。 30、优化了防盗卖加密部分代码,补丁体积更小,启动速度更快,防篡改等级更高。 启动画面背景图无偿征集帖: https://bbs.itzmx.com/thread-101638-1-1.html 每次更新换一张,随机抽选,请自行更新查看自己是否被选中,会对每一位提交者保密,提交的图仅用于启动画面,原创优先,有签名的原创最优先。 (原创需同时提交带图层列表的绘画界面截图加以证明,原创可自愿选择是否在图上签名,但不得出现接单联系方式, 启动画面中的文字字体及颜色排版可自愿修改设计,可少量增删改,但不得改变原意,如果极为优秀,可能沿用至多个更新版本。 搬运请务必注明画师名及出处。分辨率不小于1280 x 720,大触们尽情秀起来吧!!) 使用方法: 1、安装"CSP_234w_setup.exe" 2、把补丁文件"CLIPStudioPaint.exe"覆盖软件安装目录下同名文件,一般为"C:\Program Files\CELSYS\CLIP STUDIO 1.5\CLIP STUDIO PAINT\" 3、运行"CLIPStudioPaint.exe"或使用"CLIP STUDIO"正常启动 4、检查"TestProjects"里的测试用工程文件,能正常打开、修改、保存即安装成功 简体字和繁体字版特别注意: 1、补丁目录里的防盗卖文档必须要同时拷贝到安装目录下补丁才能正常使用,文件内一个字都不能改,改一个字就无法运行!没在跟你开玩笑! 注意: 1、中国大陆地区必须使用"Traditional Chinese"(繁体中文)或"Simplified Chinese"(简体中文)"文件夹里的补丁文件,中国大陆以外地区请使用“Multilanguage”里的补丁文件。 2、关闭软件时可能会小卡一下是释放内存过程。只要保存好了工程再关闭,即使用任务管理器强行关闭也不会丢失工程。Ctrl+S后可以放心关闭,电脑死机停电都不会丢工程。 祝大家元宵节快乐^_^ Wishing a very Happy Lantern Festival to everyone ^_^ 请支持正版,谢绝淘宝人员转载,官网 https://www.clipstudio.net/tc/purchase/ 下载地址: https://bbs.itzmx.com/thread-105335-1-1.html
02/20 08:00 五花八门
世界遗产是属于地球和人类的,保护世界遗产业已成为21世纪最大的国际合作。或遭风化或受人为破坏,遗产也许无法永存,而借助数码技术,一旦凝固于影像,便可以高清晰地再现,永久保存。基于这样的初衷,从1996年起,日本TBS电视台便开始拍摄制作《世界遗产》这一大型系列纪录片,每周播放一期,迄今为止已经连续播出超过一千集。 在这20多年里,摄制组多次前往从未有人涉足拍摄过的世界遗产进行拍摄。从南极附近的孤岛,到居住着珍稀野兽的中美洲巴拿马热带雨林,从福冈的神宿之岛,到位于深海海底的火山,他们的足迹已踏遍全球的各个角落。拍摄规格也从最初低清晰度的模拟视频,到后来的高清宽屏数字视频,一直到4K超清影片、VR虚拟现实影片,越来越多的世界遗产被凝固在了影像节目中,成为了人类文化和地球样貌的永久纪录。 在这些高质量的影片背后,也少不了制作人员的艰难困苦。每个小组需要携带数百公斤的拍摄器材,有时免不了要踏入人迹罕至的原始丛林,有时又需要攀爬险峻的山峰,又或是要潜入海底。有些摄制组组成员甚至还遇到过致命危险,曾和死神擦身而过。这些辛勤汗水最终化为一部部精彩的视觉盛宴,为您带来源自各地的世界遗产风光。 ========字幕组长期招募=========== 详细招募说明请看此贴→ subs.kamigami.org/28.html 说明:诸神字幕组以高质量精品字幕为宗旨,要求所有制作成员对作品有认真负责的态度。 安排工作时,时间宽裕、责任心强者优先。 ========================== 字幕组官方微博:@诸神字幕组 诸神字幕组 字幕组B站账号:@诸神字幕组 诸神字幕组 更多双语字幕,请访问诸神字幕组发布站 http://subs.kamigami.org 诸神字幕组是以制作双语字幕为主要活动的 网络组织 ,于2008年2月29日创立。意在通过传播异国文化和利用这一沟通渠道,增进对于异国国度的了解,提高大家对于外国语言的理解能力,同时结交更多志同道合的战友们共同奋斗!
02/20 01:04 五花八门
感谢piyixia分享. 《儿童故事》(全170集MP3)睡前故事 亲子教育MP3 001.龟兔赛跑 002.龙子太郎 003.龙伯巨人 004.黄鼠狼的本领 005.黄嘴小山雀 006.鸭妈妈找蛋 007.鸡蛋是谁偷的 008.鲤鱼住在水稻家 009.魔壶 010.骆驼和羊 011.驴子吹笛 012.驴、狐狸和狮子 013.驮神像的驴 014.马神医挑徒弟 015.面包房里的猫 016.霍格尔和国王的汤 017.雪兔子 018.雨滴项链 019.长发妹 020.金蝉脱壳 021.金色的房子 022.金斧头2 023.金斧头 024.金丝鸟王子 025.采蘑菇的小兔子 026.迈安德落斯河边的狐狸 027.贪心的王老大 028.被处决的前夜 029.螂哥哥和螂弟弟 030.蜗牛和乌龟比本领 031.蚯蚓和狐狸 032.蚂蚁和鸽子 033.蚂蚁和知了 034.虎王逃命 035.花木兰 036.聪明的梅花鹿 037.聪明的小木娃 038.聪明的小国王 039.聪明的乌龟 040.老虎的弟弟 041.老虎外婆 042.美人与野兽 043.美丽的牵牛花 044.美丽的壮锦 045.红蜡烛和美人鱼 046.糖猫 047.精卫填海 048.等明天 049.笨狮子 050.穴鸟和大鸦 051.种子旅行家 052.神笔马良 053.神仙花园 054.百花仙子 055.白娟鸟与海鸥的故事 056.白云 057.电视迷上课 058.王胆小的故事 059.玄奘的故事 060.猴子捞月 061.猴了捞月 062.猫和老鼠 063.猪八戒吃西瓜 064.狼来了 065.狼和羊 066.狮子和熊 067.狮子和公牛 068.狗和狼 069.狗、公鸡和狐狸 070.狐狸拜年 071.狐狸和黑熊的故事 072.牛郎织女 073.爱说大话的公鸡 074.爱美的小公鸡 075.爱吹牛的癞蛤蟆 076.爱吹牛的小花狗 077.熊猫百货商店 078.灯花 079.海瑞巧惩恶公子 080.水孩子 081.水中屏气比赛 082.死记硬背的小花猫 083.武松打虎2 084.武松打虎 085.栗子球 086.杜鹃鸟 087.木偶奇遇记 088.有本领的小白鹭 089.月夜怪语 090.月亮的脸 091.断尾狐 092.拇指姑娘 093.报恩的白鹤 094.手绢上的小白兔 095.懒熊买西瓜 096.总统与拳王 097.快乐王子 098.彩虹姐姐 099.小鹿笑了 100.小鱼捉迷藏 101.小金鱼看家 102.小象要回家 103.小象奴奴找奶奶 104.小草大力士 105.小苹果树请医生 106.小花鸡种花生 107.小花狗-歌 108.小羊和狼 109.小白鼠 110.小猴子刷牙 111.小猴吃瓜果 112.小猫钓鱼 113.小猪盖房子 114.小猪和狐狸 115.小淘气当小护士 116.小木克 117.小山羊和狼 118.小姆因佳和大河马 119.小壁虎借尾巴 120.小公鸡歌 121.小兔的春装 122.小乌龟找工作 123.对句救更夫 124.寒号鸟 125.宝莲灯 126.守株待兔 127.嫦娥奔月 128.妈妈的话不可不听 129.女娲造人 130.女娲补天 131.奇怪的花生 132.天鹅的志向 133.天女散花 134.大豆虫和小蚂蚁 135.大狼 136.大林和小林 137.大拇指下 138.大拇指上 139.大懒虫历险记 140.大力士太郎 141.大侦探和他的助手 142.大乌龟 143.夏天里的动物们 144.地窖里的妖魔 145.在牛肚子里旅行 146.土拨鼠和它的好朋友 147.回声 148.哪吒闹海 149.咕咚来了 150.后羿除害 151.后羿射日 152.后稷的传说 153.可爱的泡泡 154.十二生肖的故事 155.勇敢的小裁缝 156.冬天来了 157.农夫和蛇 158.八只小金龟 159.兔子和青蛙 160.借尾巴 161.会屙钱的驴 162.会唱歌的树 163.仙山的传说 164.九色鹿 165.乌鸦和狐狸 166.乌鸦与狐狸 167.东郭先生和狼 168.三只金苹果 169.三只快活的小老鼠 170.一只小猪 171.一只大笨狼
02/20 01:03 五花八门