旋风动漫BT资源发布索引 | 汇聚动漫BT/ED资源
为您找到相关结果个     结果不正确?请到这里反馈!
★銀色子彈官網:https://www.sbsub.com/ ★銀色子彈字幕組資料站:https://www.sbsub.com/data/ ★銀色子彈字幕組版權說明:https://www.sbsub.com/data/#tocheckcopyright ★微博、微信公眾號、嗶哩嗶哩、抖音:銀色子彈SBSUB 說明: 1.BT做種時間:發佈起至發佈15天時停止,歡迎廣大網友持續保種分流 2.建議使用標準BT軟體下載,不使用吸血軟體 3.超過做種時間且無下載速度的資源可優先嚐試使用各種網盤的離線下載 4.如發現翻譯錯誤等問題,可傳送郵件至[email protected]進行最高效反饋 ============================= 檔案名:[SBSUB][CONAN][M25SP][Love_Story_at_Police_Headquarters_~Wedding_Eve~][BDRIP][1080P][AVC_AAC][CHT_JP](3D173E88).mp4 檔案大小:1.1 gb CRC32:3D173E88 MD5:38B855EAE96805E4F1FA0ED0A84AD5DC 持續時間:1:38:41.415 主要影片編碼:AVC [email protected] 主要音訊編碼:AAC 影片流數量:1 音訊流數量:1 --------------------- 影片流[1]:編碼格式:AVC 影片流[1]:持續時間:1:38:41.415 影片流[1]:位元速率:1.4 mb/s 影片流[1]:解析度:1080P (1920*1080) 影片流[1]:幀率:23.976 影片流[1]:位深:8 影片流[1]:掃描類型:progressive --------------------- 音訊流[1]:編碼格式:AAC 音訊流[1]:持續時間:1:38:41.472 音訊流[1]:聲道:2 音訊流[1]:位元速率:120.3 kb/s 音訊流[1]:取樣率:48000 =============================
12/04 22:19 动画更新员
★银色子弹官网:https://www.sbsub.com/ ★银色子弹字幕组数据站:https://www.sbsub.com/data/ ★银色子弹字幕组版权说明:https://www.sbsub.com/data/#tocheckcopyright ★微博、微信公众号、哔哩哔哩、抖音:银色子弹SBSUB 说明: 1.BT做种时间:发布起至发布15天时停止,欢迎广大网友持续保种分流 2.建议使用标准BT软件下载,不使用吸血软件 3.超过做种时间且无下载速度的资源可优先尝试使用各种网盘的离线下载 4.如发现翻译错误等问题,可发送邮件至[email protected]进行最高效反馈 ============================= 文件名:[SBSUB][CONAN][M25SP][Love_Story_at_Police_Headquarters_~Wedding_Eve~][BDRIP][1080P][AVC_AAC][CHS_JP](DB0F2E29).mp4 文件大小:1.1 gb CRC32:DB0F2E29 MD5:C7CEA973FFAABBB9EBA265AA75633D3B 持续时间:1:38:41.415 主要视频编码:AVC [email protected] 主要音频编码:AAC 视频流数量:1 音频流数量:1 --------------------- 视频流[1]:编码格式:AVC 视频流[1]:持续时间:1:38:41.415 视频流[1]:码率:1.4 mb/s 视频流[1]:分辨率:1080P (1920*1080) 视频流[1]:帧率:23.976 视频流[1]:位深:8 视频流[1]:扫描类型:progressive --------------------- 音频流[1]:编码格式:AAC 音频流[1]:持续时间:1:38:41.472 音频流[1]:声道:2 音频流[1]:码率:120.3 kb/s 音频流[1]:采样率:48000 =============================
12/04 22:19 动画更新员
HD 1080p from Prime Video. Use CBR bitrate mode. Japanese subtitles added. We are planning to upload all prime video japan Dramas and Movies, we need your Support! Support Us Ali (Zhifubao / QR code): https://i.ibb.co/FWV2ggm/1660626347125.png PayPalMe: https://www.paypal.com/paypalme/sakuragikenji General Unique ID : 167062342414894514436268744620140529818 (0x7DAF096AA6F019E50A1E8635E456089A) Complete name : Anata.no.Ban.Desu.The.Movie.2021.1080p.AMZN.WEB-DL.DDP5.1.H.264-MagicStar.mkv Format : Matroska Format version : Version 4 File size : 8.40 GiB Duration : 2 h 22 min Overall bit rate mode : Constant Overall bit rate : 8 459 kb/s Encoded date : UTC 2022-12-03 14:10:35 Writing application : mkvmerge v50.0.0 ('Awakenings') 64-bit Writing library : libebml v1.4.0 + libmatroska v1.6.2 Cover : Yes Attachments : cover.png Video ID : 1 Format : AVC Format/Info : Advanced Video Codec Format profile : [email protected] Format settings : CABAC / 4 Ref Frames Format settings, CABAC : Yes Format settings, Reference fra : 4 frames Codec ID : V_MPEG4/ISO/AVC Duration : 2 h 22 min Bit rate mode : Constant Bit rate : 7 816 kb/s Nominal bit rate : 10 000 kb/s Width : 1 920 pixels Height : 800 pixels Display aspect ratio : 2.40:1 Frame rate mode : Constant Frame rate : 23.976 (24000/1001) FPS Color space : YUV Chroma subsampling : 4:2:0 Bit depth : 8 bits Scan type : Progressive Bits/(Pixel*Frame) : 0.212 Stream size : 7.76 GiB (92%) Default : Yes Forced : No Color range : Limited Color primaries : BT.709 Transfer characteristics : BT.709 Matrix coefficients : BT.709 Audio ID : 2 Format : E-AC-3 Format/Info : Enhanced AC-3 Commercial name : Dolby Digital Plus Codec ID : A_EAC3 Duration : 2 h 22 min Bit rate mode : Constant Bit rate : 640 kb/s Channel(s) : 6 channels Channel layout : L R C LFE Ls Rs Sampling rate : 48.0 kHz Frame rate : 31.250 FPS (1536 SPF) Compression mode : Lossy Stream size : 651 MiB (8%) Language : Japanese Service kind : Complete Main Default : Yes Forced : No
12/04 22:11 日剧更新了
HD 1080p from Prime Video. Use CBR bitrate mode. Japanese subtitles added. We are planning to upload all prime video japan Dramas and Movies, we need your Support! Support Us Ali (Zhifubao / QR code): https://i.ibb.co/FWV2ggm/1660626347125.png PayPalMe: https://www.paypal.com/paypalme/sakuragikenji General Unique ID : 107694446447998850880119723307755262811 (0x510532283226ECCA4F81F3E5A316535B) Complete name : Kinou.Nani.Tabeta.The.Movie.2021.1080p.AMZN.WEB-DL.DDP2.0.H.264-MagicStar.mkv Format : Matroska Format version : Version 4 File size : 8.28 GiB Duration : 1 h 59 min Overall bit rate mode : Constant Overall bit rate : 9 911 kb/s Encoded date : UTC 2022-12-03 14:18:06 Writing application : mkvmerge v50.0.0 ('Awakenings') 64-bit Writing library : libebml v1.4.0 + libmatroska v1.6.2 Cover : Yes Attachments : cover.png Video ID : 1 Format : AVC Format/Info : Advanced Video Codec Format profile : [email protected] Format settings : CABAC / 4 Ref Frames Format settings, CABAC : Yes Format settings, Reference fra : 4 frames Codec ID : V_MPEG4/ISO/AVC Duration : 1 h 59 min Bit rate mode : Constant Bit rate : 10 000 kb/s Width : 1 920 pixels Height : 1 040 pixels Display aspect ratio : 1.85:1 Frame rate mode : Constant Frame rate : 23.976 (24000/1001) FPS Color space : YUV Chroma subsampling : 4:2:0 Bit depth : 8 bits Scan type : Progressive Bits/(Pixel*Frame) : 0.209 Stream size : 8.09 GiB (98%) Default : Yes Forced : No Color range : Limited Color primaries : BT.709 Transfer characteristics : BT.709 Matrix coefficients : BT.709 Audio ID : 2 Format : E-AC-3 Format/Info : Enhanced AC-3 Commercial name : Dolby Digital Plus Codec ID : A_EAC3 Duration : 1 h 59 min Bit rate mode : Constant Bit rate : 224 kb/s Channel(s) : 2 channels Channel layout : L R Sampling rate : 48.0 kHz Frame rate : 31.250 FPS (1536 SPF) Compression mode : Lossy Stream size : 192 MiB (2%) Language : Japanese Service kind : Complete Main Default : Yes Forced : No
12/04 22:11 日剧更新了
简介: 一个住在离东京不远的乡村小镇的男孩·鸭川朗真。 不擅长与周围环境相处的鸭川朗真, 与同样是浮游存在的御手洗北斗组成了只有两人的小队“唐·格里斯”。 这种关系即使在御手洗北斗在东京上高中分别后,也仍然保持不变。 「喂,你看不起这个世界吗?」 高中一年级的暑假。从“唐·格里斯”的新成员佐久间雫的一个漫不经心的词开始。 由于被佐久间雫的话所牵连,被当成森林火灾的犯人的鸭川朗真, 为了寻找无罪的证据,寻找一架消失在天空中的无人机。 一个夏天的小冒险,最终会发展成一场改变少年们“LIFE”(生活方式)的大冒险。 手抄 字幕来源为KKTV 其实手抄工作在11月初就已经基本完成了 在考虑是否使用Web源还是BD源的时候,最终还是选择了BD源 可能会漏画面字幕,若有请反馈 BD外挂字幕会在字幕准确无误后放出 手抄:orion、爱打野的猪、神云都是浮马 后期:orion、小哭包 时轴:神云都是浮马 压制:冰白 阿里云盘: https://www.aliyundrive.com/s/tWUz1sagdZ5 TG频道: https://t.me/+7H24kZLhIqoyMjk1 网盘&反馈: http://orion-origin.ysepan.com/ QQ闲聊群: https://jq.qq.com/?_wv=1027&k=Svfa0KHD 请使用正规BT下载软件(比特彗星等)下载它,下载完成请尽量保持上传来使大家一起愉快地下载。 本字幕仅供学习交流使用,请在下载24小时内删除,禁止商用,请支持正版! 画面预览
11/21 00:05 动画更新员
◎译  名 名侦探柯南:万圣节的新娘 / 名侦探柯南剧场版25 / Detective Conan: The Bride of Halloween ◎片  名 名探偵コナン ハロウィンの花嫁 ◎年  代 2022 ◎产  地 日本 ◎类  别 动作 / 动画 / 悬疑 ◎语  言 日语 ◎上映日期 2022-04-15(日本) / 2022-11-18(中国大陆) ◎豆瓣评星 ★★★★☆ ◎豆瓣评分 7.9/10 from 13,736 users ◎豆瓣链接 https://movie.douban.com/subject/35437938/ ◎片  长 111分钟 ◎导  演 满仲劝 / Mitsunaka Susumu ◎演  员 高山南 / Minami Takayama | 配 江户川柯南       山崎和佳奈 / Wakana Yamazaki | 配 毛利兰       小山力也 / Rikiya Koyama | 配 毛利小五郎       高木涉 / Wataru Takagi | 配 小嶋元太       汤屋敦子 / Atsuko Yuya | 配 佐藤美和子       古谷彻 / Tôru Furuya | 配 安室透 / 降谷零       白石麻衣 / Mai Shiraishi | 配 艾莲妮克·拉弗伦蒂耶娃       井上和彦 / Kazuhiko Inoue | 配 白鸟任三郎       三木真一郎 / Shinichirô Miki | 配 萩原研二       神奈延年 / Nobutoshi Canna | 配 松田阵平       东地宏树 / Hiroki Touchi | 配 伊达航       绿川光 / Hikaru Midorikawa | 配 诸伏景光       三宅健太 / Kenta Miyake | 配 村中努       山口由里子 / Yuriko Yamaguchi | 配 克里斯汀·理查德       林原惠美 / Megumi Hayashibara | 配 灰原哀 ◎编  剧 大仓崇裕 / Takahiro Ohkura       青山刚昌 / Gôshô Aoyama ◎音  乐 大野克夫 / Katsuo Ono       菅野祐悟 / Kanno Yuugo
11/15 15:31 动画更新员