旋风动漫BT资源发布索引 | 汇聚动漫BT/ED资源
HD 1080p from TTFC. General Unique ID : 24873521821740713828526741209115051382 (0x12B6774F0B9A95A260B57810E0ECC576) Complete name : [MagicStar] Kamen Rider Gotchard Ver. Romeo and Juliet [Complete Edition] [WEBDL] [1080p].mkv Format : Matroska Format version : Version 4 File size : 448 MiB Duration : 12 min 34 s Overall bit rate mode : Variable Overall bit rate : 4 980 kb/s Frame rate : 23.976 FPS Writing application : Lavf57.48.101 Writing library : Lavf57.48.101 DATE : 2024-04-14T15:28:35.6885831+08:00 Video ID : 1 Format : AVC Format/Info : Advanced Video Codec Format profile : Main@L4 Format settings : CABAC / 3 Ref Frames Format settings, CABAC : Yes Format settings, Reference fra : 3 frames Format settings, GOP : M=4, N=33 Codec ID : V_MPEG4/ISO/AVC Duration : 12 min 34 s Bit rate mode : Variable Maximum bit rate : 10 000 kb/s Width : 1 920 pixels Height : 1 080 pixels Display aspect ratio : 16:9 Frame rate mode : Constant Frame rate : 23.976 (24000/1001) FPS Color space : YUV Chroma subsampling : 4:2:0 Bit depth : 8 bits Scan type : Progressive Default : Yes Forced : No Color range : Limited Color primaries : BT.709 Transfer characteristics : BT.709 Matrix coefficients : BT.709 Audio ID : 2 Format : AAC LC Format/Info : Advanced Audio Codec Low Complexity Codec ID : A_AAC-2 Duration : 12 min 34 s Channel(s) : 2 channels Channel layout : L R Sampling rate : 48.0 kHz Frame rate : 46.875 FPS (1024 SPF) Compression mode : Lossy Delay relative to video : -21 ms Default : Yes Forced : No
04/15 22:01 特摄连载
HD 1080p from TTFC. General Unique ID : 212620058563428150988533080241703114252 (0x9FF5223DDD251D88F58190B8272E560C) Complete name : [MagicStar] Bakuage Sentai Boonboomger EP07 [WEBDL] [1080p].mkv Format : Matroska Format version : Version 4 File size : 766 MiB Duration : 23 min 30 s Overall bit rate : 4 556 kb/s Frame rate : 23.976 FPS Writing application : Lavf57.48.101 Writing library : Lavf57.48.101 DATE : 2024-04-14T15:15:03.8347706+08:00 Video ID : 1 Format : AVC Format/Info : Advanced Video Codec Format profile : High@L4 Format settings : CABAC / 4 Ref Frames Format settings, CABAC : Yes Format settings, Reference fra : 4 frames Format settings, GOP : M=3, N=48 Codec ID : V_MPEG4/ISO/AVC Duration : 23 min 29 s Width : 1 920 pixels Height : 1 080 pixels Display aspect ratio : 16:9 Frame rate mode : Constant Frame rate : 23.976 (24000/1001) FPS Color space : YUV Chroma subsampling : 4:2:0 Bit depth : 8 bits Scan type : Progressive Writing library : x264 core 148 Encoding settings : cabac=1 / ref=4 / deblock=1:1:1 / analyse=0x3:0x113 / me=hex / subme=7 / psy=1 / psy_rd=0.40:0.00 / mixed_ref=1 / me_range=16 / chroma_me=1 / trellis=1 / 8x8dct=1 / cqm=0 / deadzone=21,11 / fast_pskip=1 / chroma_qp_offset=-2 / threads=30 / lookahead_threads=5 / sliced_threads=0 / nr=0 / decimate=1 / interlaced=0 / bluray_compat=0 / constrained_intra=0 / bframes=2 / b_pyramid=2 / b_adapt=0 / b_bias=0 / direct=1 / weightb=1 / open_gop=0 / weightp=2 / keyint=48 / keyint_min=25 / scenecut=0 / intra_refresh=0 / rc_lookahead=40 / rc=crf / mbtree=1 / crf=23.0 / qcomp=0.60 / qpmin=0 / qpmax=69 / qpstep=4 / vbv_maxrate=6000 / vbv_bufsize=6000 / crf_max=0.0 / nal_hrd=none / filler=0 / ip_ratio=1.40 / aq=1:0.60 Default : Yes Forced : No Audio ID : 2 Format : AAC LC Format/Info : Advanced Audio Codec Low Complexity Codec ID : A_AAC-2 Duration : 23 min 30 s Channel(s) : 2 channels Channel layout : L R Sampling rate : 48.0 kHz Frame rate : 46.875 FPS (1024 SPF) Compression mode : Lossy Delay relative to video : -42 ms Default : Yes Forced : No
04/15 22:00 特摄连载
HD 1080p from TTFC. General Unique ID : 227071739007454447759413210438897734688 (0xAAD46D1956236604E2CC251C14D79420) Complete name : [MagicStar] Kamen Rider Gotchard EP31 [WEBDL] [1080p].mkv Format : Matroska Format version : Version 4 File size : 625 MiB Duration : 23 min 30 s Overall bit rate : 3 720 kb/s Frame rate : 23.976 FPS Writing application : Lavf57.48.101 Writing library : Lavf57.48.101 DATE : 2024-04-14T15:11:11.1203159+08:00 Video ID : 1 Format : AVC Format/Info : Advanced Video Codec Format profile : High@L4 Format settings : CABAC / 4 Ref Frames Format settings, CABAC : Yes Format settings, Reference fra : 4 frames Format settings, GOP : M=3, N=48 Codec ID : V_MPEG4/ISO/AVC Duration : 23 min 29 s Width : 1 920 pixels Height : 1 080 pixels Display aspect ratio : 16:9 Frame rate mode : Constant Frame rate : 23.976 (24000/1001) FPS Color space : YUV Chroma subsampling : 4:2:0 Bit depth : 8 bits Scan type : Progressive Writing library : x264 core 148 Encoding settings : cabac=1 / ref=4 / deblock=1:1:1 / analyse=0x3:0x113 / me=hex / subme=7 / psy=1 / psy_rd=0.40:0.00 / mixed_ref=1 / me_range=16 / chroma_me=1 / trellis=1 / 8x8dct=1 / cqm=0 / deadzone=21,11 / fast_pskip=1 / chroma_qp_offset=-2 / threads=30 / lookahead_threads=5 / sliced_threads=0 / nr=0 / decimate=1 / interlaced=0 / bluray_compat=0 / constrained_intra=0 / bframes=2 / b_pyramid=2 / b_adapt=0 / b_bias=0 / direct=1 / weightb=1 / open_gop=0 / weightp=2 / keyint=48 / keyint_min=25 / scenecut=0 / intra_refresh=0 / rc_lookahead=40 / rc=crf / mbtree=1 / crf=23.0 / qcomp=0.60 / qpmin=0 / qpmax=69 / qpstep=4 / vbv_maxrate=6000 / vbv_bufsize=6000 / crf_max=0.0 / nal_hrd=none / filler=0 / ip_ratio=1.40 / aq=1:0.60 Default : Yes Forced : No Audio ID : 2 Format : AAC LC Format/Info : Advanced Audio Codec Low Complexity Codec ID : A_AAC-2 Duration : 23 min 30 s Channel(s) : 2 channels Channel layout : L R Sampling rate : 48.0 kHz Frame rate : 46.875 FPS (1024 SPF) Compression mode : Lossy Delay relative to video : -42 ms Default : Yes Forced : No
04/15 22:00 特摄连载
飞女刑事的BD,里面精选了飞女刑事的1-3部的部分TV集数,还有一个特别篇,不过每集分辨率都是480P,属于SDBD。 片名:飞女刑事 3部作一举见/Sukeban Deka Ikkyo/スケバン刑事 3部作一挙見 集数: 飞女刑事:1,2,11,12,19,22,24 飞女刑事2:少女铁假面传说:1,2,3,6,16,23,30,33,34,37,38,40,42 飞女刑事3:少女忍法帖传奇:1,2,12,20,30,32,36,39,41,42 飞女刑事3:少女忍法帖传奇 特别篇 三姐妹最危险的旅行陷阱 音轨:AC3 日语 字幕:无 压制:伊藤诚 文件发布:DBD制作组 可以使用电子邮箱联系本组,电子邮箱:[email protected] 已经建立TG交流群,欢迎大家加入:https://t.me/DBD_Raws_Discussion 已经成立DBD分流Q群,欢迎大家加入分流大队:560823326 本组已有爱发电主页,希望大家有能力的可以贡献自己一份力量,谢谢大家支持 爱发电主页:https://afdian.net/@112127luji DBD制作组正在招募:翻译,时间轴,校对,字幕,美工,宣传,片源,特效,压制等成员,有兴趣的朋友欢迎加入DBD制作组:1040411052 聊天吹水群(特摄):746546998 聊天吹水群(动漫):740501700 B站主页1:https://space.bilibili.com/97177229 神圣路基艾尔 B站主页2:https://space.bilibili.com/476857955 神圣之路基艾尔 下载工具请使用:qbittorrent,uTorrent等正规下载工具上传,下载完成后请打开软件再尽可能多上传,人人为我,我为人人,让其他人能够尽可能快速地下载并保持上传。 下载地址: 夸克网盘:https://pan.quark.cn/s/4ab616fad705 百度网盘:https://pan.baidu.com/s/1pt1N7DKEdHUUXnH_Biqkng?pwd=abv1 提取码:abv1
04/13 14:45 特摄连载
之前压制的泽塔蓝光没压很多特典,这次补上特典 片名:泽塔奥特曼/Ultraman Z/ウルトラマンゼット 集数:01-25TV全集+特别篇+特典映像 音轨:FLAC 日语 字幕:无 压制:伊藤诚 文件发布:DBD制作组 可以使用电子邮箱联系本组,电子邮箱:[email protected] 已经建立TG交流群,欢迎大家加入:https://t.me/DBD_Raws_Discussion 已经成立DBD分流Q群,欢迎大家加入分流大队:560823326 本组已有爱发电主页,希望大家有能力的可以贡献自己一份力量,谢谢大家支持 爱发电主页:https://afdian.net/@112127luji DBD制作组正在招募:翻译,时间轴,校对,字幕,美工,宣传,片源,特效,压制等成员,有兴趣的朋友欢迎加入DBD制作组:1040411052 聊天吹水群(特摄):746546998 聊天吹水群(动漫):740501700 B站主页1:https://space.bilibili.com/97177229 神圣路基艾尔 B站主页2:https://space.bilibili.com/476857955 神圣之路基艾尔 下载工具请使用:qbittorrent,uTorrent等正规下载工具上传,下载完成后请打开软件再尽可能多上传,人人为我,我为人人,让其他人能够尽可能快速地下载并保持上传。 下载地址: 夸克网盘:https://pan.quark.cn/s/bad71c502f7f 百度网盘:https://pan.baidu.com/s/1BVmaKq1cSGIQvlz8HnW4QQ?pwd=is7j 提取码:is7j
04/12 14:00 特摄连载
HD 1080p from Prime Video. Use CBR bitrate mode. We are planning to upload all Prime Video Japan Dramas and Movies, we need your Support! Support Us Ali (Zhifubao / QR code): https://i.ibb.co/FWV2ggm/1660626347125.png PayPalMe: https://www.paypal.com/paypalme/sakuragikenji ETH (ERC20): 0xea3286E176099E8C9aBaf25A0edf231374C04E89 USDT (BTC / OMNI): 1Lemw6fu5vG3NdvWGxDxsPX7T7yUb3rNzu General Unique ID : 226247010237571792490320264618689850548 (0xAA3596D4CAFDC23BC2AD7B55D68A6CB4) Complete name : Bakuage.Sentai.Boonboomger.EP06.1080p.AMZN.WEB-DL.DDP2.0.H.264-MagicStar.mkv Format : Matroska Format version : Version 4 File size : 1.62 GiB Duration : 23 min 32 s Overall bit rate mode : Constant Overall bit rate : 9 849 kb/s Frame rate : 23.976 FPS Encoded date : 2024-04-10 09:14:53 UTC Writing application : mkvmerge v50.0.0 ('Awakenings') 64-bit Writing library : libebml v1.4.0 + libmatroska v1.6.2 Cover : Yes Attachments : cover.jpg Video ID : 1 Format : AVC Format/Info : Advanced Video Codec Format profile : High@L4 Format settings : CABAC / 4 Ref Frames Format settings, CABAC : Yes Format settings, Reference fra : 4 frames Codec ID : V_MPEG4/ISO/AVC Duration : 23 min 32 s Bit rate mode : Constant Bit rate : 10 000 kb/s Width : 1 920 pixels Height : 1 080 pixels Display aspect ratio : 16:9 Frame rate mode : Constant Frame rate : 23.976 (24000/1001) FPS Color space : YUV Chroma subsampling : 4:2:0 Bit depth : 8 bits Scan type : Progressive Bits/(Pixel*Frame) : 0.201 Stream size : 1.58 GiB (98%) Default : Yes Forced : No Color range : Limited Color primaries : BT.709 Transfer characteristics : BT.709 Matrix coefficients : BT.709 Audio ID : 2 Format : E-AC-3 Format/Info : Enhanced AC-3 Commercial name : Dolby Digital Plus Codec ID : A_EAC3 Duration : 23 min 32 s Bit rate mode : Constant Bit rate : 224 kb/s Channel(s) : 2 channels Channel layout : L R Sampling rate : 48.0 kHz Frame rate : 31.250 FPS (1536 SPF) Compression mode : Lossy Stream size : 37.7 MiB (2%) Title : 日本語 [オリジナル] Language : Japanese Service kind : Complete Main Default : Yes Forced : No
04/10 22:00 特摄连载
HD 1080p from Prime Video. Use CBR bitrate mode. We are planning to upload all Prime Video Japan Dramas and Movies, we need your Support! Support Us Ali (Zhifubao / QR code): https://i.ibb.co/FWV2ggm/1660626347125.png PayPalMe: https://www.paypal.com/paypalme/sakuragikenji ETH (ERC20): 0xea3286E176099E8C9aBaf25A0edf231374C04E89 USDT (BTC / OMNI): 1Lemw6fu5vG3NdvWGxDxsPX7T7yUb3rNzu General Unique ID : 25300735509268410889757782583239792824 (0x1308BE91DD96C8608D9CC1B9058058B8) Complete name : Kamen.Rider.Gotchard.EP30.1080p.AMZN.WEB-DL.DDP2.0.H.264-MagicStar.mkv Format : Matroska Format version : Version 4 File size : 1.50 GiB Duration : 23 min 32 s Overall bit rate mode : Constant Overall bit rate : 9 110 kb/s Frame rate : 23.976 FPS Encoded date : 2024-04-10 09:14:41 UTC Writing application : mkvmerge v50.0.0 ('Awakenings') 64-bit Writing library : libebml v1.4.0 + libmatroska v1.6.2 Cover : Yes Attachments : cover.jpg Video ID : 1 Format : AVC Format/Info : Advanced Video Codec Format profile : High@L4 Format settings : CABAC / 4 Ref Frames Format settings, CABAC : Yes Format settings, Reference fra : 4 frames Codec ID : V_MPEG4/ISO/AVC Duration : 23 min 32 s Bit rate mode : Constant Bit rate : 8 879 kb/s Nominal bit rate : 10 000 kb/s Width : 1 920 pixels Height : 1 080 pixels Display aspect ratio : 16:9 Frame rate mode : Constant Frame rate : 23.976 (24000/1001) FPS Color space : YUV Chroma subsampling : 4:2:0 Bit depth : 8 bits Scan type : Progressive Bits/(Pixel*Frame) : 0.179 Stream size : 1.46 GiB (97%) Default : Yes Forced : No Color range : Limited Color primaries : BT.709 Transfer characteristics : BT.709 Matrix coefficients : BT.709 Audio ID : 2 Format : E-AC-3 Format/Info : Enhanced AC-3 Commercial name : Dolby Digital Plus Codec ID : A_EAC3 Duration : 23 min 32 s Bit rate mode : Constant Bit rate : 224 kb/s Channel(s) : 2 channels Channel layout : L R Sampling rate : 48.0 kHz Frame rate : 31.250 FPS (1536 SPF) Compression mode : Lossy Stream size : 37.7 MiB (2%) Title : 日本語 [オリジナル] Language : Japanese Service kind : Complete Main Default : Yes Forced : No
04/10 22:00 特摄连载
HD 1080p from Prime Video. Use CBR bitrate mode. We are planning to upload all Prime Video Japan Dramas and Movies, we need your Support! Support Us Ali (Zhifubao / QR code): https://i.ibb.co/FWV2ggm/1660626347125.png PayPalMe: https://www.paypal.com/paypalme/sakuragikenji ETH (ERC20): 0xea3286E176099E8C9aBaf25A0edf231374C04E89 USDT (BTC / OMNI): 1Lemw6fu5vG3NdvWGxDxsPX7T7yUb3rNzu General Unique ID : 253483779874348307429836895952839363712 (0xBEB33340CEF042EDE55A213E8767CC80) Complete name : Bakuage.Sentai.Boonboomger.EP05.1080p.AMZN.WEB-DL.DDP2.0.H.264-MagicStar.mkv Format : Matroska Format version : Version 4 File size : 1.63 GiB Duration : 23 min 31 s Overall bit rate mode : Constant Overall bit rate : 9 895 kb/s Frame rate : 23.976 FPS Encoded date : 2024-04-03 04:09:35 UTC Writing application : mkvmerge v50.0.0 ('Awakenings') 64-bit Writing library : libebml v1.4.0 + libmatroska v1.6.2 Cover : Yes Attachments : cover.jpg Video ID : 1 Format : AVC Format/Info : Advanced Video Codec Format profile : High@L4 Format settings : CABAC / 4 Ref Frames Format settings, CABAC : Yes Format settings, Reference fra : 4 frames Codec ID : V_MPEG4/ISO/AVC Duration : 23 min 31 s Bit rate mode : Constant Bit rate : 10 000 kb/s Width : 1 920 pixels Height : 1 080 pixels Display aspect ratio : 16:9 Frame rate mode : Constant Frame rate : 23.976 (24000/1001) FPS Color space : YUV Chroma subsampling : 4:2:0 Bit depth : 8 bits Scan type : Progressive Bits/(Pixel*Frame) : 0.201 Stream size : 1.59 GiB (98%) Default : Yes Forced : No Color range : Limited Color primaries : BT.709 Transfer characteristics : BT.709 Matrix coefficients : BT.709 Audio ID : 2 Format : E-AC-3 Format/Info : Enhanced AC-3 Commercial name : Dolby Digital Plus Codec ID : A_EAC3 Duration : 23 min 31 s Bit rate mode : Constant Bit rate : 224 kb/s Channel(s) : 2 channels Channel layout : L R Sampling rate : 48.0 kHz Frame rate : 31.250 FPS (1536 SPF) Compression mode : Lossy Stream size : 37.7 MiB (2%) Title : 日本語 [オリジナル] Language : Japanese Service kind : Complete Main Default : Yes Forced : No
04/10 20:01 特摄连载
HD 1080p from Prime Video. Use CBR bitrate mode. We are planning to upload all Prime Video Japan Dramas and Movies, we need your Support! Support Us Ali (Zhifubao / QR code): https://i.ibb.co/FWV2ggm/1660626347125.png PayPalMe: https://www.paypal.com/paypalme/sakuragikenji ETH (ERC20): 0xea3286E176099E8C9aBaf25A0edf231374C04E89 USDT (BTC / OMNI): 1Lemw6fu5vG3NdvWGxDxsPX7T7yUb3rNzu General Unique ID : 116950822763679114427525592800647210070 (0x57FBE8BE9650A9AF4C1AFFF669206456) Complete name : Kamen.Rider.Gotchard.EP29.1080p.AMZN.WEB-DL.DDP2.0.H.264-MagicStar.mkv Format : Matroska Format version : Version 4 File size : 1.56 GiB Duration : 23 min 32 s Overall bit rate mode : Constant Overall bit rate : 9 478 kb/s Frame rate : 23.976 FPS Encoded date : 2024-04-03 04:07:39 UTC Writing application : mkvmerge v50.0.0 ('Awakenings') 64-bit Writing library : libebml v1.4.0 + libmatroska v1.6.2 Cover : Yes Attachments : cover.jpg Video ID : 1 Format : AVC Format/Info : Advanced Video Codec Format profile : High@L4 Format settings : CABAC / 4 Ref Frames Format settings, CABAC : Yes Format settings, Reference fra : 4 frames Codec ID : V_MPEG4/ISO/AVC Duration : 23 min 32 s Bit rate mode : Constant Bit rate : 9 239 kb/s Nominal bit rate : 10 000 kb/s Width : 1 920 pixels Height : 1 080 pixels Display aspect ratio : 16:9 Frame rate mode : Constant Frame rate : 23.976 (24000/1001) FPS Color space : YUV Chroma subsampling : 4:2:0 Bit depth : 8 bits Scan type : Progressive Bits/(Pixel*Frame) : 0.186 Stream size : 1.52 GiB (97%) Default : Yes Forced : No Color range : Limited Color primaries : BT.709 Transfer characteristics : BT.709 Matrix coefficients : BT.709 Audio ID : 2 Format : E-AC-3 Format/Info : Enhanced AC-3 Commercial name : Dolby Digital Plus Codec ID : A_EAC3 Duration : 23 min 32 s Bit rate mode : Constant Bit rate : 224 kb/s Channel(s) : 2 channels Channel layout : L R Sampling rate : 48.0 kHz Frame rate : 31.250 FPS (1536 SPF) Compression mode : Lossy Stream size : 37.7 MiB (2%) Title : 日本語 [オリジナル] Language : Japanese Service kind : Complete Main Default : Yes Forced : No
04/10 20:01 特摄连载
HD 1080p from Youtube official channel. English and Chinese subtitles added. General Unique ID : 41570315291879723614237394339176188601 (0x1F4626C8D2D7902F216CB3D449010AB9) Complete name : [MagicStar] GARO - Hagane wo Tsugu Mono EP12 END [WEBDL] [1080p] [YOUTUBE].mkv Format : Matroska Format version : Version 4 File size : 395 MiB Duration : 23 min 40 s Overall bit rate : 2 332 kb/s Frame rate : 23.976 FPS Encoded date : 2024-03-29 13:02:49 UTC Writing application : mkvmerge v50.0.0 ('Awakenings') 64-bit Writing library : libebml v1.4.0 + libmatroska v1.6.2 Video ID : 1 Format : AVC Format/Info : Advanced Video Codec Format profile : High@L4 Format settings : CABAC / 3 Ref Frames Format settings, CABAC : Yes Format settings, Reference fra : 3 frames Codec ID : V_MPEG4/ISO/AVC Duration : 23 min 40 s Bit rate : 2 202 kb/s Width : 1 920 pixels Height : 1 080 pixels Display aspect ratio : 16:9 Frame rate mode : Constant Frame rate : 23.976 (24000/1001) FPS Color space : YUV Chroma subsampling : 4:2:0 Bit depth : 8 bits Scan type : Progressive Bits/(Pixel*Frame) : 0.044 Stream size : 373 MiB (94%) Writing library : x264 core 155 r2901 7d0ff22 Default : Yes Forced : No Color range : Limited Color primaries : BT.709 Transfer characteristics : BT.709 Matrix coefficients : BT.709 Audio ID : 2 Format : AAC LC Format/Info : Advanced Audio Codec Low Complexity Codec ID : A_AAC-2 Duration : 23 min 40 s Bit rate : 128 kb/s Channel(s) : 2 channels Channel layout : L R Sampling rate : 44.1 kHz Frame rate : 43.066 FPS (1024 SPF) Compression mode : Lossy Stream size : 21.7 MiB (5%) Title : 日本語 [オリジナル] Language : Japanese Default : Yes Forced : No
04/10 20:01 特摄连载
HD from HULU JAPAN. General Unique ID : 128618476042651945009417012232312714877 (0x60C3047706C5C02FA942421FA021F67D) Complete name : GARO.Hagane.wo.Tsugu.Mono.EP12.HULU.WEB-DL.AAC2.0.H.264-MagicStar.mkv Format : Matroska Format version : Version 4 File size : 1.03 GiB Duration : 23 min 41 s Overall bit rate : 6 216 kb/s Frame rate : 23.976 FPS Encoded date : 2024-03-29 06:15:15 UTC Writing application : mkvmerge v50.0.0 ('Awakenings') 64-bit Writing library : libebml v1.4.0 + libmatroska v1.6.2 Cover : Yes Attachments : cover.png Video ID : 1 Format : AVC Format/Info : Advanced Video Codec Format profile : High@L4 Format settings : CABAC / 4 Ref Frames Format settings, CABAC : Yes Format settings, Reference fra : 4 frames Codec ID : V_MPEG4/ISO/AVC Duration : 23 min 41 s Bit rate : 5 960 kb/s Width : 1 600 pixels Height : 900 pixels Display aspect ratio : 16:9 Frame rate mode : Constant Frame rate : 23.976 (24000/1001) FPS Color space : YUV Chroma subsampling : 4:2:0 Bit depth : 8 bits Scan type : Progressive Bits/(Pixel*Frame) : 0.173 Stream size : 1 010 MiB (96%) Default : Yes Forced : No Color range : Limited Color primaries : BT.709 Transfer characteristics : BT.709 Matrix coefficients : BT.709 Audio ID : 2 Format : AAC LC Format/Info : Advanced Audio Codec Low Complexity Codec ID : A_AAC-2 Duration : 23 min 41 s Bit rate : 253 kb/s Channel(s) : 2 channels Channel layout : L R Sampling rate : 48.0 kHz Frame rate : 46.875 FPS (1024 SPF) Compression mode : Lossy Stream size : 42.9 MiB (4%) Title : 日本語 [オリジナル] Language : Japanese Default : Yes Forced : No
04/10 20:01 特摄连载
HD 1080p from U-NEXT. We are planning to upload all U-NEXT Dramas and Movies, we need your Support! Support Us Ali (Zhifubao / QR code): https://i.ibb.co/FWV2ggm/1660626347125.png PayPalMe: https://www.paypal.com/paypalme/sakuragikenji ETH (ERC20): 0xea3286E176099E8C9aBaf25A0edf231374C04E89 USDT (BTC / OMNI): 1Lemw6fu5vG3NdvWGxDxsPX7T7yUb3rNzu General Unique ID : 152095427465504206292142771387540498725 (0x726C838972565BDE3121E65B4140E925) Complete name : GARO.Hagane.wo.Tsugu.Mono.EP12.1080p.U-NEXT.WEB-DL.AAC2.0.H.264-MagicStar.mkv Format : Matroska Format version : Version 4 File size : 703 MiB Duration : 23 min 42 s Overall bit rate : 4 145 kb/s Frame rate : 29.970 FPS Encoded date : 2024-03-29 06:12:34 UTC Writing application : mkvmerge v50.0.0 ('Awakenings') 64-bit Writing library : libebml v1.4.0 + libmatroska v1.6.2 Cover : Yes Attachments : cover.png Video ID : 1 Format : AVC Format/Info : Advanced Video Codec Format profile : Main@L4 Format settings : CABAC / 2 Ref Frames Format settings, CABAC : Yes Format settings, Reference fra : 2 frames Codec ID : V_MPEG4/ISO/AVC Duration : 23 min 41 s Bit rate : 4 020 kb/s Width : 1 920 pixels Height : 1 080 pixels Display aspect ratio : 16:9 Frame rate mode : Constant Frame rate : 29.970 (29970/1000) FPS Color space : YUV Chroma subsampling : 4:2:0 Bit depth : 8 bits Scan type : Progressive Bits/(Pixel*Frame) : 0.065 Stream size : 681 MiB (97%) Writing library : x264 core 148 r2665kMod a01e339 Encoding settings : cabac=1 / ref=2 / deblock=1:1:1 / analyse=0x1:0x111 / me=tesa / subme=11 / psy=1 / fade_compensate=0.00 / psy_rd=0.40:0.10 / mixed_ref=1 / me_range=48 / chroma_me=1 / trellis=2 / 8x8dct=0 / cqm=0 / deadzone=21,11 / fast_pskip=1 / chroma_qp_offset=-3 / threads=12 / lookahead_threads=1 / sliced_threads=0 / nr=0 / decimate=1 / interlaced=0 / bluray_compat=0 / constrained_intra=0 / fgo=0 / bframes=2 / b_pyramid=0 / b_adapt=2 / b_bias=0 / direct=3 / weightb=1 / open_gop=0 / weightp=2 / keyint=60 / keyint_min=31 / scenecut=0 / intra_refresh=0 / rc_lookahead=60 / rc=2pass / mbtree=1 / bitrate=4020 / ratetol=1.0 / qcomp=0.80 / qpmin=10 / qpmax=69 / qpstep=15 / cplxblur=20.0 / qblur=0.5 / vbv_maxrate=8050 / vbv_bufsize=8050 / nal_hrd=none / filler=0 / ip_ratio=1.40 / aq=2:0.60 Default : Yes Forced : No Audio ID : 2 Format : AAC LC Format/Info : Advanced Audio Codec Low Complexity Codec ID : A_AAC-2 Duration : 23 min 42 s Bit rate : 125 kb/s Channel(s) : 2 channels Channel layout : L R Sampling rate : 48.0 kHz Frame rate : 46.875 FPS (1024 SPF) Compression mode : Lossy Stream size : 21.3 MiB (3%) Title : 日本語 [オリジナル] Language : Japanese Default : Yes Forced : No
04/10 20:00 特摄连载
HD 1080p from TVer. General Unique ID : 321909442897226721959181689930909477131 (0xF22D80E85E9BE23A00BC0E85295BE90B) Complete name : [MagicStar] GARO - Hagane wo Tsugu Mono EP12 END [WEBDL] [1080p].mkv Format : Matroska Format version : Version 4 File size : 488 MiB Duration : 23 min 40 s Overall bit rate : 2 881 kb/s Frame rate : 29.970 FPS Encoded date : 2024-03-28 23:36:39 UTC Writing application : mkvmerge v50.0.0 ('Awakenings') 64-bit Writing library : libebml v1.4.0 + libmatroska v1.6.2 Video ID : 1 Format : AVC Format/Info : Advanced Video Codec Format profile : High@L4 Format settings : CABAC / 4 Ref Frames Format settings, CABAC : Yes Format settings, Reference fra : 4 frames Codec ID : V_MPEG4/ISO/AVC Duration : 23 min 40 s Bit rate : 2 687 kb/s Width : 1 920 pixels Height : 1 080 pixels Display aspect ratio : 16:9 Frame rate mode : Constant Frame rate : 29.970 (29970/1000) FPS Original frame rate : 29.970 (30000/1001) FPS Color space : YUV Chroma subsampling : 4:2:0 Bit depth : 8 bits Scan type : Progressive Bits/(Pixel*Frame) : 0.043 Stream size : 455 MiB (93%) Default : Yes Forced : No Color range : Limited Color primaries : BT.709 Transfer characteristics : BT.709 Matrix coefficients : BT.709 Audio ID : 2 Format : AAC LC Format/Info : Advanced Audio Codec Low Complexity Codec ID : A_AAC-2 Duration : 23 min 40 s Bit rate : 192 kb/s Channel(s) : 2 channels Channel layout : L R Sampling rate : 48.0 kHz Frame rate : 46.875 FPS (1024 SPF) Compression mode : Lossy Stream size : 32.3 MiB (7%) Title : 日本語 [オリジナル] Language : Japanese Default : Yes Forced : No
04/10 20:00 特摄连载
HD 1080p from Prime Video. Use CBR bitrate mode. We are planning to upload all Prime Video Japan Dramas and Movies, we need your Support! Support Us Ali (Zhifubao / QR code): https://i.ibb.co/FWV2ggm/1660626347125.png PayPalMe: https://www.paypal.com/paypalme/sakuragikenji ETH (ERC20): 0xea3286E176099E8C9aBaf25A0edf231374C04E89 USDT (BTC / OMNI): 1Lemw6fu5vG3NdvWGxDxsPX7T7yUb3rNzu General Unique ID : 162643466238234199748522064559410958447 (0x7A5BFE0014623DB9A6D4992BE612D06F) Complete name : Bakuage.Sentai.Boonboomger.EP04.1080p.AMZN.WEB-DL.DDP2.0.H.264-MagicStar.mkv Format : Matroska Format version : Version 4 File size : 1.62 GiB Duration : 23 min 32 s Overall bit rate mode : Constant Overall bit rate : 9 864 kb/s Frame rate : 23.976 FPS Encoded date : 2024-03-27 09:33:30 UTC Writing application : mkvmerge v50.0.0 ('Awakenings') 64-bit Writing library : libebml v1.4.0 + libmatroska v1.6.2 Cover : Yes Attachments : cover.jpg Video ID : 1 Format : AVC Format/Info : Advanced Video Codec Format profile : High@L4 Format settings : CABAC / 4 Ref Frames Format settings, CABAC : Yes Format settings, Reference fra : 4 frames Codec ID : V_MPEG4/ISO/AVC Duration : 23 min 32 s Bit rate mode : Constant Bit rate : 10 000 kb/s Width : 1 920 pixels Height : 1 080 pixels Display aspect ratio : 16:9 Frame rate mode : Constant Frame rate : 23.976 (24000/1001) FPS Color space : YUV Chroma subsampling : 4:2:0 Bit depth : 8 bits Scan type : Progressive Bits/(Pixel*Frame) : 0.201 Stream size : 1.58 GiB (98%) Default : Yes Forced : No Color range : Limited Color primaries : BT.709 Transfer characteristics : BT.709 Matrix coefficients : BT.709 Audio ID : 2 Format : E-AC-3 Format/Info : Enhanced AC-3 Commercial name : Dolby Digital Plus Codec ID : A_EAC3 Duration : 23 min 32 s Bit rate mode : Constant Bit rate : 224 kb/s Channel(s) : 2 channels Channel layout : L R Sampling rate : 48.0 kHz Frame rate : 31.250 FPS (1536 SPF) Compression mode : Lossy Stream size : 37.7 MiB (2%) Title : 日本語 [オリジナル] Language : Japanese Service kind : Complete Main Default : Yes Forced : No
04/10 20:00 特摄连载
HD 1080p from Prime Video. Use CBR bitrate mode. We are planning to upload all Prime Video Japan Dramas and Movies, we need your Support! Support Us Ali (Zhifubao / QR code): https://i.ibb.co/FWV2ggm/1660626347125.png PayPalMe: https://www.paypal.com/paypalme/sakuragikenji ETH (ERC20): 0xea3286E176099E8C9aBaf25A0edf231374C04E89 USDT (BTC / OMNI): 1Lemw6fu5vG3NdvWGxDxsPX7T7yUb3rNzu General Unique ID : 288299785291471420889780204686942368840 (0xD8E484D999D1B0305A0206F4290F7448) Complete name : Kamen.Rider.Gotchard.EP28.1080p.AMZN.WEB-DL.DDP2.0.H.264-MagicStar.mkv Format : Matroska Format version : Version 4 File size : 1.50 GiB Duration : 23 min 32 s Overall bit rate mode : Constant Overall bit rate : 9 139 kb/s Frame rate : 23.976 FPS Encoded date : 2024-03-27 09:32:04 UTC Writing application : mkvmerge v50.0.0 ('Awakenings') 64-bit Writing library : libebml v1.4.0 + libmatroska v1.6.2 Cover : Yes Attachments : cover.jpg Video ID : 1 Format : AVC Format/Info : Advanced Video Codec Format profile : High@L4 Format settings : CABAC / 4 Ref Frames Format settings, CABAC : Yes Format settings, Reference fra : 4 frames Codec ID : V_MPEG4/ISO/AVC Duration : 23 min 31 s Bit rate mode : Constant Bit rate : 8 906 kb/s Nominal bit rate : 10 000 kb/s Width : 1 920 pixels Height : 1 080 pixels Display aspect ratio : 16:9 Frame rate mode : Constant Frame rate : 23.976 (24000/1001) FPS Color space : YUV Chroma subsampling : 4:2:0 Bit depth : 8 bits Scan type : Progressive Bits/(Pixel*Frame) : 0.179 Stream size : 1.46 GiB (97%) Default : Yes Forced : No Color range : Limited Color primaries : BT.709 Transfer characteristics : BT.709 Matrix coefficients : BT.709 Audio ID : 2 Format : E-AC-3 Format/Info : Enhanced AC-3 Commercial name : Dolby Digital Plus Codec ID : A_EAC3 Duration : 23 min 32 s Bit rate mode : Constant Bit rate : 224 kb/s Channel(s) : 2 channels Channel layout : L R Sampling rate : 48.0 kHz Frame rate : 31.250 FPS (1536 SPF) Compression mode : Lossy Stream size : 37.7 MiB (2%) Title : 日本語 [オリジナル] Language : Japanese Service kind : Complete Main Default : Yes Forced : No
04/10 20:00 特摄连载
宇宙刑事夏依达部分集数先前的压制参数设置错误,原始片源没有问题,所以重压了部分参数错误的集数,其他集数和先前发布的一致。 片名:宇宙刑事夏依达/Space Sheriff Shaider/宇宙刑事シャイダー 集数:01-49TV全集+剧场版 Next Generation 烧结版+特典映像 音轨:FLAC 日语 字幕:无 压制:纸欣dream 文件发布:DBD制作组 可以使用电子邮箱联系本组,电子邮箱:[email protected] 已经建立TG交流群,欢迎大家加入:https://t.me/DBD_Raws_Discussion 已经成立DBD分流Q群,欢迎大家加入分流大队:560823326 本组已有爱发电主页,希望大家有能力的可以贡献自己一份力量,谢谢大家支持 爱发电主页:https://afdian.net/@112127luji DBD制作组正在招募:翻译,时间轴,校对,字幕,美工,宣传,片源,特效,压制等成员,有兴趣的朋友欢迎加入DBD制作组:1040411052 聊天吹水群(特摄):746546998 聊天吹水群(动漫):740501700 B站主页1:https://space.bilibili.com/97177229 神圣路基艾尔 B站主页2:https://space.bilibili.com/476857955 神圣之路基艾尔 下载工具请使用:qbittorrent,uTorrent等正规下载工具上传,下载完成后请打开软件再尽可能多上传,人人为我,我为人人,让其他人能够尽可能快速地下载并保持上传。 下载地址: 夸克网盘:https://pan.quark.cn/s/5c3ee7a45892 百度网盘:https://pan.baidu.com/s/1HL6zqmYqafZj0puOUjzOoA?pwd=2ox5 提取码:2ox5
04/09 16:00 特摄连载
有人反馈之前的杰克奥特曼36集有问题,经过核查是片源问题,于是重新更换了修复好的片源对全片重新压制 片名:杰克奥特曼/归来的奥特曼/Ultraman Jack/Return of Ultraman/ウルトラマンジャック/帰ってきたウルトラマン 集数:01-51TV全集+剧场版+特典映像 音轨:FLAC 日语 字幕:无 压制:纸欣dream 文件发布:DBD制作组 可以使用电子邮箱联系本组,电子邮箱:[email protected] 已经建立TG交流群,欢迎大家加入:https://t.me/DBD_Raws_Discussion 已经成立DBD分流Q群,欢迎大家加入分流大队:560823326 本组已有爱发电主页,希望大家有能力的可以贡献自己一份力量,谢谢大家支持 爱发电主页:https://afdian.net/@112127luji DBD制作组正在招募:翻译,时间轴,校对,字幕,美工,宣传,片源,特效,压制等成员,有兴趣的朋友欢迎加入DBD制作组:1040411052 聊天吹水群(特摄):746546998 聊天吹水群(动漫):740501700 B站主页1:https://space.bilibili.com/97177229 神圣路基艾尔 B站主页2:https://space.bilibili.com/476857955 神圣之路基艾尔 下载工具请使用:qbittorrent,uTorrent等正规下载工具上传,下载完成后请打开软件再尽可能多上传,人人为我,我为人人,让其他人能够尽可能快速地下载并保持上传。 下载地址: 夸克网盘:https://pan.quark.cn/s/13d965708f1c 百度网盘:https://pan.baidu.com/s/1kQdUWHbkxBpVYOrNbIl5kQ?pwd=fio1 提取码:fio1
04/09 16:00 特摄连载
HD 1080p from Youtube official channel. English and Chinese subtitles added. General Unique ID : 7602298586782132615872803516658917003 (0x5B8264251A1760945CB40B9DAE69E8B) Complete name : [MagicStar] GARO - Hagane wo Tsugu Mono EP11 [WEBDL] [1080p] [YOUTUBE].mkv Format : Matroska Format version : Version 4 File size : 320 MiB Duration : 23 min 40 s Overall bit rate : 1 893 kb/s Frame rate : 23.976 FPS Encoded date : 2024-03-24 23:08:14 UTC Writing application : mkvmerge v50.0.0 ('Awakenings') 64-bit Writing library : libebml v1.4.0 + libmatroska v1.6.2 Video ID : 1 Format : AVC Format/Info : Advanced Video Codec Format profile : High@L4 Format settings : CABAC / 3 Ref Frames Format settings, CABAC : Yes Format settings, Reference fra : 3 frames Codec ID : V_MPEG4/ISO/AVC Duration : 23 min 40 s Bit rate : 1 763 kb/s Width : 1 920 pixels Height : 1 080 pixels Display aspect ratio : 16:9 Frame rate mode : Constant Frame rate : 23.976 (24000/1001) FPS Color space : YUV Chroma subsampling : 4:2:0 Bit depth : 8 bits Scan type : Progressive Bits/(Pixel*Frame) : 0.035 Stream size : 298 MiB (93%) Writing library : x264 core 155 r2901 7d0ff22 Default : Yes Forced : No Color range : Limited Color primaries : BT.709 Transfer characteristics : BT.709 Matrix coefficients : BT.709 Audio ID : 2 Format : AAC LC Format/Info : Advanced Audio Codec Low Complexity Codec ID : A_AAC-2 Duration : 23 min 40 s Bit rate : 128 kb/s Channel(s) : 2 channels Channel layout : L R Sampling rate : 44.1 kHz Frame rate : 43.066 FPS (1024 SPF) Compression mode : Lossy Stream size : 21.7 MiB (7%) Title : 日本語 [オリジナル] Language : Japanese Default : Yes Forced : No
04/08 10:00 特摄连载
HD 1080p from U-NEXT. We are planning to upload all U-NEXT Dramas and Movies, we need your Support! Support Us Ali (Zhifubao / QR code): https://i.ibb.co/FWV2ggm/1660626347125.png PayPalMe: https://www.paypal.com/paypalme/sakuragikenji ETH (ERC20): 0xea3286E176099E8C9aBaf25A0edf231374C04E89 USDT (BTC / OMNI): 1Lemw6fu5vG3NdvWGxDxsPX7T7yUb3rNzu General Unique ID : 65305465152684926643663180395291844660 (0x31216005B31A5213C36E3D932E4BA034) Complete name : GARO.Hagane.wo.Tsugu.Mono.EP11.1080p.U-NEXT.WEB-DL.AAC2.0.H.264-MagicStar.mkv Format : Matroska Format version : Version 4 File size : 702 MiB Duration : 23 min 41 s Overall bit rate : 4 142 kb/s Frame rate : 29.970 FPS Encoded date : 2024-03-22 08:07:04 UTC Writing application : mkvmerge v50.0.0 ('Awakenings') 64-bit Writing library : libebml v1.4.0 + libmatroska v1.6.2 Cover : Yes Attachments : cover.png Video ID : 1 Format : AVC Format/Info : Advanced Video Codec Format profile : Main@L4 Format settings : CABAC / 2 Ref Frames Format settings, CABAC : Yes Format settings, Reference fra : 2 frames Codec ID : V_MPEG4/ISO/AVC Duration : 23 min 41 s Bit rate : 4 020 kb/s Width : 1 920 pixels Height : 1 080 pixels Display aspect ratio : 16:9 Frame rate mode : Constant Frame rate : 29.970 (29970/1000) FPS Color space : YUV Chroma subsampling : 4:2:0 Bit depth : 8 bits Scan type : Progressive Bits/(Pixel*Frame) : 0.065 Stream size : 680 MiB (97%) Writing library : x264 core 148 r2665kMod a01e339 Encoding settings : cabac=1 / ref=2 / deblock=1:1:1 / analyse=0x1:0x111 / me=tesa / subme=11 / psy=1 / fade_compensate=0.00 / psy_rd=0.40:0.10 / mixed_ref=1 / me_range=48 / chroma_me=1 / trellis=2 / 8x8dct=0 / cqm=0 / deadzone=21,11 / fast_pskip=1 / chroma_qp_offset=-3 / threads=12 / lookahead_threads=1 / sliced_threads=0 / nr=0 / decimate=1 / interlaced=0 / bluray_compat=0 / constrained_intra=0 / fgo=0 / bframes=2 / b_pyramid=0 / b_adapt=2 / b_bias=0 / direct=3 / weightb=1 / open_gop=0 / weightp=2 / keyint=60 / keyint_min=31 / scenecut=0 / intra_refresh=0 / rc_lookahead=60 / rc=2pass / mbtree=1 / bitrate=4020 / ratetol=1.0 / qcomp=0.80 / qpmin=10 / qpmax=69 / qpstep=15 / cplxblur=20.0 / qblur=0.5 / vbv_maxrate=8050 / vbv_bufsize=8050 / nal_hrd=none / filler=0 / ip_ratio=1.40 / aq=2:0.60 Default : Yes Forced : No Audio ID : 2 Format : AAC LC Format/Info : Advanced Audio Codec Low Complexity Codec ID : A_AAC-2 Duration : 23 min 41 s Bit rate : 125 kb/s Channel(s) : 2 channels Channel layout : L R Sampling rate : 48.0 kHz Frame rate : 46.875 FPS (1024 SPF) Compression mode : Lossy Stream size : 21.3 MiB (3%) Title : 日本語 [オリジナル] Language : Japanese Default : Yes Forced : No
04/08 08:00 特摄连载
HD 1080p from TVer. General Unique ID : 35531232141890776868668357956469573013 (0x1ABB10FF379509D0EBB1F9D9183CC595) Complete name : [MagicStar] GARO - Hagane wo Tsugu Mono EP11 [WEBDL] [1080p].mkv Format : Matroska Format version : Version 4 File size : 489 MiB Duration : 23 min 40 s Overall bit rate : 2 887 kb/s Frame rate : 29.970 FPS Encoded date : 2024-03-22 06:37:12 UTC Writing application : mkvmerge v50.0.0 ('Awakenings') 64-bit Writing library : libebml v1.4.0 + libmatroska v1.6.2 Video ID : 1 Format : AVC Format/Info : Advanced Video Codec Format profile : High@L4 Format settings : CABAC / 4 Ref Frames Format settings, CABAC : Yes Format settings, Reference fra : 4 frames Codec ID : V_MPEG4/ISO/AVC Duration : 23 min 40 s Bit rate : 2 693 kb/s Width : 1 920 pixels Height : 1 080 pixels Display aspect ratio : 16:9 Frame rate mode : Constant Frame rate : 29.970 (29970/1000) FPS Original frame rate : 29.970 (30000/1001) FPS Color space : YUV Chroma subsampling : 4:2:0 Bit depth : 8 bits Scan type : Progressive Bits/(Pixel*Frame) : 0.043 Stream size : 456 MiB (93%) Default : Yes Forced : No Color range : Limited Color primaries : BT.709 Transfer characteristics : BT.709 Matrix coefficients : BT.709 Audio ID : 2 Format : AAC LC Format/Info : Advanced Audio Codec Low Complexity Codec ID : A_AAC-2 Duration : 23 min 40 s Bit rate : 192 kb/s Channel(s) : 2 channels Channel layout : L R Sampling rate : 48.0 kHz Frame rate : 46.875 FPS (1024 SPF) Compression mode : Lossy Stream size : 32.5 MiB (7%) Title : 日本語 [オリジナル] Language : Japanese Default : Yes Forced : No
04/08 08:00 特摄连载
HD 1080p from Prime Video. Use CBR bitrate mode. We are planning to upload all Prime Video Japan Dramas and Movies, we need your Support! Support Us Ali (Zhifubao / QR code): https://i.ibb.co/FWV2ggm/1660626347125.png PayPalMe: https://www.paypal.com/paypalme/sakuragikenji ETH (ERC20): 0xea3286E176099E8C9aBaf25A0edf231374C04E89 USDT (BTC / OMNI): 1Lemw6fu5vG3NdvWGxDxsPX7T7yUb3rNzu General Unique ID : 252949686945149132649837685716853705159 (0xBE4C56704D810C15C6E016DF667FC9C7) Complete name : Bakuage.Sentai.Boonboomger.EP03.1080p.AMZN.WEB-DL.DDP2.0.H.264-MagicStar.mkv Format : Matroska Format version : Version 4 File size : 1.59 GiB Duration : 23 min 32 s Overall bit rate mode : Constant Overall bit rate : 9 673 kb/s Frame rate : 23.976 FPS Encoded date : 2024-03-22 04:02:05 UTC Writing application : mkvmerge v50.0.0 ('Awakenings') 64-bit Writing library : libebml v1.4.0 + libmatroska v1.6.2 Cover : Yes Attachments : cover.jpg Video ID : 1 Format : AVC Format/Info : Advanced Video Codec Format profile : High@L4 Format settings : CABAC / 4 Ref Frames Format settings, CABAC : Yes Format settings, Reference fra : 4 frames Codec ID : V_MPEG4/ISO/AVC Duration : 23 min 32 s Bit rate mode : Constant Bit rate : 9 438 kb/s Nominal bit rate : 10 000 kb/s Width : 1 920 pixels Height : 1 080 pixels Display aspect ratio : 16:9 Frame rate mode : Constant Frame rate : 23.976 (24000/1001) FPS Color space : YUV Chroma subsampling : 4:2:0 Bit depth : 8 bits Scan type : Progressive Bits/(Pixel*Frame) : 0.190 Stream size : 1.55 GiB (98%) Default : Yes Forced : No Color range : Limited Color primaries : BT.709 Transfer characteristics : BT.709 Matrix coefficients : BT.709 Audio ID : 2 Format : E-AC-3 Format/Info : Enhanced AC-3 Commercial name : Dolby Digital Plus Codec ID : A_EAC3 Duration : 23 min 32 s Bit rate mode : Constant Bit rate : 224 kb/s Channel(s) : 2 channels Channel layout : L R Sampling rate : 48.0 kHz Frame rate : 31.250 FPS (1536 SPF) Compression mode : Lossy Stream size : 37.7 MiB (2%) Title : 日本語 [オリジナル] Language : Japanese Service kind : Complete Main Default : Yes Forced : No
04/08 08:00 特摄连载
HD 1080p from Prime Video. Use CBR bitrate mode. We are planning to upload all Prime Video Japan Dramas and Movies, we need your Support! Support Us Ali (Zhifubao / QR code): https://i.ibb.co/FWV2ggm/1660626347125.png PayPalMe: https://www.paypal.com/paypalme/sakuragikenji ETH (ERC20): 0xea3286E176099E8C9aBaf25A0edf231374C04E89 USDT (BTC / OMNI): 1Lemw6fu5vG3NdvWGxDxsPX7T7yUb3rNzu General Unique ID : 83541936814149815346076695709131666462 (0x3ED9977E62D2C71005D480DBB41EF41E) Complete name : Kamen.Rider.Gotchard.EP27.1080p.AMZN.WEB-DL.DDP2.0.H.264-MagicStar.mkv Format : Matroska Format version : Version 4 File size : 1.54 GiB Duration : 23 min 32 s Overall bit rate mode : Constant Overall bit rate : 9 358 kb/s Frame rate : 23.976 FPS Encoded date : 2024-03-22 03:59:10 UTC Writing application : mkvmerge v50.0.0 ('Awakenings') 64-bit Writing library : libebml v1.4.0 + libmatroska v1.6.2 Cover : Yes Attachments : cover.jpg Video ID : 1 Format : AVC Format/Info : Advanced Video Codec Format profile : High@L4 Format settings : CABAC / 4 Ref Frames Format settings, CABAC : Yes Format settings, Reference fra : 4 frames Codec ID : V_MPEG4/ISO/AVC Duration : 23 min 32 s Bit rate mode : Constant Bit rate : 9 124 kb/s Nominal bit rate : 10 000 kb/s Width : 1 920 pixels Height : 1 080 pixels Display aspect ratio : 16:9 Frame rate mode : Constant Frame rate : 23.976 (24000/1001) FPS Color space : YUV Chroma subsampling : 4:2:0 Bit depth : 8 bits Scan type : Progressive Bits/(Pixel*Frame) : 0.184 Stream size : 1.50 GiB (97%) Default : Yes Forced : No Color range : Limited Color primaries : BT.709 Transfer characteristics : BT.709 Matrix coefficients : BT.709 Audio ID : 2 Format : E-AC-3 Format/Info : Enhanced AC-3 Commercial name : Dolby Digital Plus Codec ID : A_EAC3 Duration : 23 min 32 s Bit rate mode : Constant Bit rate : 224 kb/s Channel(s) : 2 channels Channel layout : L R Sampling rate : 48.0 kHz Frame rate : 31.250 FPS (1536 SPF) Compression mode : Lossy Stream size : 37.7 MiB (2%) Title : 日本語 [オリジナル] Language : Japanese Service kind : Complete Main Default : Yes Forced : No
04/08 08:00 特摄连载
HD 1080p from Youtube official channel. English and Chinese subtitles added. General Unique ID : 63474756391672392346610098567999357003 (0x2FC0CB1C92B5C734843BA13D61BB804B) Complete name : [MagicStar] GARO - Hagane wo Tsugu Mono EP10 [WEBDL] [1080p] [YOUTUBE].mkv Format : Matroska Format version : Version 4 File size : 266 MiB Duration : 23 min 40 s Overall bit rate : 1 569 kb/s Frame rate : 23.976 FPS Encoded date : 2024-03-18 09:13:32 UTC Writing application : mkvmerge v50.0.0 ('Awakenings') 64-bit Writing library : libebml v1.4.0 + libmatroska v1.6.2 Video ID : 1 Format : AVC Format/Info : Advanced Video Codec Format profile : High@L4 Format settings : CABAC / 3 Ref Frames Format settings, CABAC : Yes Format settings, Reference fra : 3 frames Codec ID : V_MPEG4/ISO/AVC Duration : 23 min 40 s Bit rate : 1 438 kb/s Width : 1 920 pixels Height : 1 080 pixels Display aspect ratio : 16:9 Frame rate mode : Constant Frame rate : 23.976 (24000/1001) FPS Color space : YUV Chroma subsampling : 4:2:0 Bit depth : 8 bits Scan type : Progressive Bits/(Pixel*Frame) : 0.029 Stream size : 243 MiB (92%) Writing library : x264 core 155 r2901 7d0ff22 Default : Yes Forced : No Color range : Limited Color primaries : BT.709 Transfer characteristics : BT.709 Matrix coefficients : BT.709 Audio ID : 2 Format : AAC LC Format/Info : Advanced Audio Codec Low Complexity Codec ID : A_AAC-2 Duration : 23 min 40 s Bit rate : 128 kb/s Channel(s) : 2 channels Channel layout : L R Sampling rate : 44.1 kHz Frame rate : 43.066 FPS (1024 SPF) Compression mode : Lossy Stream size : 21.7 MiB (8%) Title : 日本語 [オリジナル] Language : Japanese Default : Yes Forced : No
04/08 08:00 特摄连载
HD 1080p from HULU JAPAN. General Unique ID : 228187221002935851507183712550897766901 (0xABAB429B861D9468137B324F20F6D1F5) Complete name : GARO.Hagane.wo.Tsugu.Mono.EP10.1080p.HULU.WEB-DL.AAC2.0.H.264-MagicStar.mkv Format : Matroska Format version : Version 4 File size : 1.03 GiB Duration : 23 min 41 s Overall bit rate : 6 247 kb/s Frame rate : 23.976 FPS Encoded date : 2024-03-18 09:09:07 UTC Writing application : mkvmerge v50.0.0 ('Awakenings') 64-bit Writing library : libebml v1.4.0 + libmatroska v1.6.2 Cover : Yes Attachments : cover.png Video ID : 1 Format : AVC Format/Info : Advanced Video Codec Format profile : High@L4 Format settings : CABAC / 4 Ref Frames Format settings, CABAC : Yes Format settings, Reference fra : 4 frames Codec ID : V_MPEG4/ISO/AVC Duration : 23 min 41 s Bit rate : 5 991 kb/s Width : 1 920 pixels Height : 1 080 pixels Display aspect ratio : 16:9 Frame rate mode : Constant Frame rate : 23.976 (24000/1001) FPS Color space : YUV Chroma subsampling : 4:2:0 Bit depth : 8 bits Scan type : Progressive Bits/(Pixel*Frame) : 0.121 Stream size : 1 015 MiB (96%) Default : Yes Forced : No Color range : Limited Color primaries : BT.709 Transfer characteristics : BT.709 Matrix coefficients : BT.709 Audio ID : 2 Format : AAC LC Format/Info : Advanced Audio Codec Low Complexity Codec ID : A_AAC-2 Duration : 23 min 41 s Bit rate : 253 kb/s Channel(s) : 2 channels Channel layout : L R Sampling rate : 48.0 kHz Frame rate : 46.875 FPS (1024 SPF) Compression mode : Lossy Stream size : 42.9 MiB (4%) Title : 日本語 [オリジナル] Language : Japanese Default : Yes Forced : No
04/08 08:00 特摄连载
HD 1080p from U-NEXT. We are planning to upload all U-NEXT Dramas and Movies, we need your Support! Support Us Ali (Zhifubao / QR code): https://i.ibb.co/FWV2ggm/1660626347125.png PayPalMe: https://www.paypal.com/paypalme/sakuragikenji ETH (ERC20): 0xea3286E176099E8C9aBaf25A0edf231374C04E89 USDT (BTC / OMNI): 1Lemw6fu5vG3NdvWGxDxsPX7T7yUb3rNzu General Unique ID : 22260089774804456335510504290636974317 (0x10BF23291EF0235810C874EA8096C8ED) Complete name : GARO.Hagane.wo.Tsugu.Mono.EP10.1080p.U-NEXT.WEB-DL.AAC2.0.H.264-MagicStar.mkv Format : Matroska Format version : Version 4 File size : 702 MiB Duration : 23 min 42 s Overall bit rate : 4 142 kb/s Frame rate : 29.970 FPS Encoded date : 2024-03-18 09:08:01 UTC Writing application : mkvmerge v50.0.0 ('Awakenings') 64-bit Writing library : libebml v1.4.0 + libmatroska v1.6.2 Cover : Yes Attachments : cover.png Video ID : 1 Format : AVC Format/Info : Advanced Video Codec Format profile : Main@L4 Format settings : CABAC / 2 Ref Frames Format settings, CABAC : Yes Format settings, Reference fra : 2 frames Codec ID : V_MPEG4/ISO/AVC Duration : 23 min 41 s Bit rate : 4 020 kb/s Width : 1 920 pixels Height : 1 080 pixels Display aspect ratio : 16:9 Frame rate mode : Constant Frame rate : 29.970 (29970/1000) FPS Color space : YUV Chroma subsampling : 4:2:0 Bit depth : 8 bits Scan type : Progressive Bits/(Pixel*Frame) : 0.065 Stream size : 680 MiB (97%) Writing library : x264 core 148 r2665kMod a01e339 Encoding settings : cabac=1 / ref=2 / deblock=1:1:1 / analyse=0x1:0x111 / me=tesa / subme=11 / psy=1 / fade_compensate=0.00 / psy_rd=0.40:0.10 / mixed_ref=1 / me_range=48 / chroma_me=1 / trellis=2 / 8x8dct=0 / cqm=0 / deadzone=21,11 / fast_pskip=1 / chroma_qp_offset=-3 / threads=12 / lookahead_threads=1 / sliced_threads=0 / nr=0 / decimate=1 / interlaced=0 / bluray_compat=0 / constrained_intra=0 / fgo=0 / bframes=2 / b_pyramid=0 / b_adapt=2 / b_bias=0 / direct=3 / weightb=1 / open_gop=0 / weightp=2 / keyint=60 / keyint_min=31 / scenecut=0 / intra_refresh=0 / rc_lookahead=60 / rc=2pass / mbtree=1 / bitrate=4020 / ratetol=1.0 / qcomp=0.80 / qpmin=10 / qpmax=69 / qpstep=15 / cplxblur=20.0 / qblur=0.5 / vbv_maxrate=8050 / vbv_bufsize=8050 / nal_hrd=none / filler=0 / ip_ratio=1.40 / aq=2:0.60 Default : Yes Forced : No Audio ID : 2 Format : AAC LC Format/Info : Advanced Audio Codec Low Complexity Codec ID : A_AAC-2 Duration : 23 min 42 s Bit rate : 125 kb/s Channel(s) : 2 channels Channel layout : L R Sampling rate : 48.0 kHz Frame rate : 46.875 FPS (1024 SPF) Compression mode : Lossy Stream size : 21.3 MiB (3%) Title : 日本語 [オリジナル] Language : Japanese Default : Yes Forced : No
04/08 08:00 特摄连载
HD 1080p from TVer. General Unique ID : 207548530806630751760386590859192354875 (0x9C24649E3B05C2A3F2A1BE04C1D2C83B) Complete name : [MagicStar] GARO - Hagane wo Tsugu Mono EP10 [WEBDL] [1080p].mkv Format : Matroska Format version : Version 4 File size : 489 MiB Duration : 23 min 40 s Overall bit rate : 2 885 kb/s Frame rate : 29.970 FPS Encoded date : 2024-03-18 06:57:53 UTC Writing application : mkvmerge v50.0.0 ('Awakenings') 64-bit Writing library : libebml v1.4.0 + libmatroska v1.6.2 Video ID : 1 Format : AVC Format/Info : Advanced Video Codec Format profile : High@L4 Format settings : CABAC / 4 Ref Frames Format settings, CABAC : Yes Format settings, Reference fra : 4 frames Codec ID : V_MPEG4/ISO/AVC Duration : 23 min 40 s Bit rate : 2 690 kb/s Width : 1 920 pixels Height : 1 080 pixels Display aspect ratio : 16:9 Frame rate mode : Constant Frame rate : 29.970 (29970/1000) FPS Original frame rate : 29.970 (30000/1001) FPS Color space : YUV Chroma subsampling : 4:2:0 Bit depth : 8 bits Scan type : Progressive Bits/(Pixel*Frame) : 0.043 Stream size : 456 MiB (93%) Writing library : Zencoder Video Encoding System Default : Yes Forced : No Color range : Limited Color primaries : BT.709 Transfer characteristics : BT.709 Matrix coefficients : BT.709 Audio ID : 2 Format : AAC LC Format/Info : Advanced Audio Codec Low Complexity Codec ID : A_AAC-2 Duration : 23 min 40 s Bit rate : 192 kb/s Channel(s) : 2 channels Channel layout : L R Sampling rate : 48.0 kHz Frame rate : 46.875 FPS (1024 SPF) Compression mode : Lossy Stream size : 32.5 MiB (7%) Title : 日本語 [オリジナル] Language : Japanese Default : Yes Forced : No
04/08 08:00 特摄连载
HD 1080p from Prime Video. Use CBR bitrate mode. We are planning to upload all Prime Video Japan Dramas and Movies, we need your Support! Support Us Ali (Zhifubao / QR code): https://i.ibb.co/FWV2ggm/1660626347125.png PayPalMe: https://www.paypal.com/paypalme/sakuragikenji ETH (ERC20): 0xea3286E176099E8C9aBaf25A0edf231374C04E89 USDT (BTC / OMNI): 1Lemw6fu5vG3NdvWGxDxsPX7T7yUb3rNzu General Unique ID : 216106084403867046964072456415931824932 (0xA2948495DD9B0B61964481F4C5A07B24) Complete name : Bakuage.Sentai.Boonboomger.EP02.1080p.AMZN.WEB-DL.DDP2.0.H.264-MagicStar.mkv Format : Matroska Format version : Version 4 File size : 1.60 GiB Duration : 23 min 31 s Overall bit rate mode : Constant Overall bit rate : 9 715 kb/s Frame rate : 23.976 FPS Encoded date : 2024-03-14 16:55:26 UTC Writing application : mkvmerge v50.0.0 ('Awakenings') 64-bit Writing library : libebml v1.4.0 + libmatroska v1.6.2 Cover : Yes Attachments : cover.jpg Video ID : 1 Format : AVC Format/Info : Advanced Video Codec Format profile : High@L4 Format settings : CABAC / 4 Ref Frames Format settings, CABAC : Yes Format settings, Reference fra : 4 frames Codec ID : V_MPEG4/ISO/AVC Duration : 23 min 31 s Bit rate mode : Constant Bit rate : 9 481 kb/s Nominal bit rate : 10 000 kb/s Width : 1 920 pixels Height : 1 080 pixels Display aspect ratio : 16:9 Frame rate mode : Constant Frame rate : 23.976 (24000/1001) FPS Color space : YUV Chroma subsampling : 4:2:0 Bit depth : 8 bits Scan type : Progressive Bits/(Pixel*Frame) : 0.191 Stream size : 1.56 GiB (98%) Default : Yes Forced : No Color range : Limited Color primaries : BT.709 Transfer characteristics : BT.709 Matrix coefficients : BT.709 Audio ID : 2 Format : E-AC-3 Format/Info : Enhanced AC-3 Commercial name : Dolby Digital Plus Codec ID : A_EAC3 Duration : 23 min 31 s Bit rate mode : Constant Bit rate : 224 kb/s Channel(s) : 2 channels Channel layout : L R Sampling rate : 48.0 kHz Frame rate : 31.250 FPS (1536 SPF) Compression mode : Lossy Stream size : 37.7 MiB (2%) Title : 日本語 [オリジナル] Language : Japanese Service kind : Complete Main Default : Yes Forced : No
04/08 08:00 特摄连载
HD from HULU JAPAN. General Unique ID : 57091821078262170703857054449558801179 (0x2AF37C1A8114C26314A590585AFACB1B) Complete name : GARO.Hagane.wo.Tsugu.Mono.EP11.1080p.HULU.WEB-DL.AAC2.0.H.264-MagicStar.mkv Format : Matroska Format version : Version 4 File size : 1.03 GiB Duration : 23 min 41 s Overall bit rate : 6 221 kb/s Frame rate : 23.976 FPS Encoded date : 2024-03-22 09:05:53 UTC Writing application : mkvmerge v50.0.0 ('Awakenings') 64-bit Writing library : libebml v1.4.0 + libmatroska v1.6.2 Cover : Yes Attachments : cover.png Video ID : 1 Format : AVC Format/Info : Advanced Video Codec Format profile : High@L4 Format settings : CABAC / 4 Ref Frames Format settings, CABAC : Yes Format settings, Reference fra : 4 frames Codec ID : V_MPEG4/ISO/AVC Duration : 23 min 41 s Bit rate : 5 965 kb/s Width : 1 920 pixels Height : 1 080 pixels Display aspect ratio : 16:9 Frame rate mode : Constant Frame rate : 23.976 (24000/1001) FPS Color space : YUV Chroma subsampling : 4:2:0 Bit depth : 8 bits Scan type : Progressive Bits/(Pixel*Frame) : 0.120 Stream size : 1 010 MiB (96%) Default : Yes Forced : No Color range : Limited Color primaries : BT.709 Transfer characteristics : BT.709 Matrix coefficients : BT.709 Audio ID : 2 Format : AAC LC Format/Info : Advanced Audio Codec Low Complexity Codec ID : A_AAC-2 Duration : 23 min 41 s Bit rate : 253 kb/s Channel(s) : 2 channels Channel layout : L R Sampling rate : 48.0 kHz Frame rate : 46.875 FPS (1024 SPF) Compression mode : Lossy Stream size : 42.9 MiB (4%) Title : 日本語 [オリジナル] Language : Japanese Default : Yes Forced : No
04/08 08:00 特摄连载
HD 1080p from Prime Video. Use CBR bitrate mode. We are planning to upload all Prime Video Japan Dramas and Movies, we need your Support! Support Us Ali (Zhifubao / QR code): https://i.ibb.co/FWV2ggm/1660626347125.png PayPalMe: https://www.paypal.com/paypalme/sakuragikenji ETH (ERC20): 0xea3286E176099E8C9aBaf25A0edf231374C04E89 USDT (BTC / OMNI): 1Lemw6fu5vG3NdvWGxDxsPX7T7yUb3rNzu General Unique ID : 142085956122601393465570716017814343591 (0x6AE4C27F7504089BAA5D5B261EB70FA7) Complete name : Kamen.Rider.Gotchard.EP26.1080p.AMZN.WEB-DL.DDP2.0.H.264-MagicStar.mkv Format : Matroska Format version : Version 4 File size : 1.51 GiB Duration : 23 min 32 s Overall bit rate mode : Constant Overall bit rate : 9 189 kb/s Frame rate : 23.976 FPS Encoded date : 2024-03-14 16:53:47 UTC Writing application : mkvmerge v50.0.0 ('Awakenings') 64-bit Writing library : libebml v1.4.0 + libmatroska v1.6.2 Cover : Yes Attachments : cover.jpg Video ID : 1 Format : AVC Format/Info : Advanced Video Codec Format profile : High@L4 Format settings : CABAC / 4 Ref Frames Format settings, CABAC : Yes Format settings, Reference fra : 4 frames Codec ID : V_MPEG4/ISO/AVC Duration : 23 min 31 s Bit rate mode : Constant Bit rate : 8 957 kb/s Nominal bit rate : 10 000 kb/s Width : 1 920 pixels Height : 1 080 pixels Display aspect ratio : 16:9 Frame rate mode : Constant Frame rate : 23.976 (24000/1001) FPS Color space : YUV Chroma subsampling : 4:2:0 Bit depth : 8 bits Scan type : Progressive Bits/(Pixel*Frame) : 0.180 Stream size : 1.47 GiB (97%) Default : Yes Forced : No Color range : Limited Color primaries : BT.709 Transfer characteristics : BT.709 Matrix coefficients : BT.709 Audio ID : 2 Format : E-AC-3 Format/Info : Enhanced AC-3 Commercial name : Dolby Digital Plus Codec ID : A_EAC3 Duration : 23 min 32 s Bit rate mode : Constant Bit rate : 224 kb/s Channel(s) : 2 channels Channel layout : L R Sampling rate : 48.0 kHz Frame rate : 31.250 FPS (1536 SPF) Compression mode : Lossy Stream size : 37.7 MiB (2%) Title : 日本語 [オリジナル] Language : Japanese Service kind : Complete Main Default : Yes Forced : No
04/08 08:00 特摄连载
HD 1080p from Youtube official channel. English and Chinese subtitles added. General Unique ID : 169911438957721805806386989604104363637 (0x7FD3C0B8B28EB1877AFA1BB5E760DE75) Complete name : [MagicStar] GARO - Hagane wo Tsugu Mono EP09 [WEBDL] [1080p] [YOUTUBE].mkv Format : Matroska Format version : Version 4 File size : 265 MiB Duration : 23 min 40 s Overall bit rate : 1 567 kb/s Frame rate : 23.976 FPS Encoded date : 2024-03-10 07:13:09 UTC Writing application : mkvmerge v50.0.0 ('Awakenings') 64-bit Writing library : libebml v1.4.0 + libmatroska v1.6.2 Video ID : 1 Format : AVC Format/Info : Advanced Video Codec Format profile : High@L4 Format settings : CABAC / 3 Ref Frames Format settings, CABAC : Yes Format settings, Reference fra : 3 frames Codec ID : V_MPEG4/ISO/AVC Duration : 23 min 40 s Bit rate : 1 437 kb/s Width : 1 920 pixels Height : 1 080 pixels Display aspect ratio : 16:9 Frame rate mode : Constant Frame rate : 23.976 (24000/1001) FPS Color space : YUV Chroma subsampling : 4:2:0 Bit depth : 8 bits Scan type : Progressive Bits/(Pixel*Frame) : 0.029 Stream size : 243 MiB (92%) Writing library : x264 core 155 r2901 7d0ff22 Default : Yes Forced : No Color range : Limited Color primaries : BT.709 Transfer characteristics : BT.709 Matrix coefficients : BT.709 Audio ID : 2 Format : AAC LC Format/Info : Advanced Audio Codec Low Complexity Codec ID : A_AAC-2 Duration : 23 min 40 s Bit rate : 128 kb/s Channel(s) : 2 channels Channel layout : L R Sampling rate : 44.1 kHz Frame rate : 43.066 FPS (1024 SPF) Compression mode : Lossy Stream size : 21.7 MiB (8%) Title : 日本語 [オリジナル] Language : Japanese Default : Yes Forced : No
04/08 04:00 特摄连载
HD from HULU JAPAN. General Unique ID : 38969013753571888482452199280725326700 (0x1D5128B77182F478DA88E0C2BF99FB6C) Complete name : GARO.Hagane.wo.Tsugu.Mono.EP09.HULU.WEB-DL.AAC2.0.H.264-MagicStar.mkv Format : Matroska Format version : Version 4 File size : 1.03 GiB Duration : 23 min 41 s Overall bit rate : 6 232 kb/s Frame rate : 23.976 FPS Encoded date : 2024-03-10 06:37:35 UTC Writing application : mkvmerge v50.0.0 ('Awakenings') 64-bit Writing library : libebml v1.4.0 + libmatroska v1.6.2 Cover : Yes Attachments : cover.png Video ID : 1 Format : AVC Format/Info : Advanced Video Codec Format profile : High@L4 Format settings : CABAC / 4 Ref Frames Format settings, CABAC : Yes Format settings, Reference fra : 4 frames Codec ID : V_MPEG4/ISO/AVC Duration : 23 min 41 s Bit rate : 5 975 kb/s Width : 1 600 pixels Height : 900 pixels Display aspect ratio : 16:9 Frame rate mode : Constant Frame rate : 23.976 (24000/1001) FPS Color space : YUV Chroma subsampling : 4:2:0 Bit depth : 8 bits Scan type : Progressive Bits/(Pixel*Frame) : 0.173 Stream size : 1 012 MiB (96%) Default : Yes Forced : No Color range : Limited Color primaries : BT.709 Transfer characteristics : BT.709 Matrix coefficients : BT.709 Audio ID : 2 Format : AAC LC Format/Info : Advanced Audio Codec Low Complexity Codec ID : A_AAC-2 Duration : 23 min 41 s Bit rate : 253 kb/s Channel(s) : 2 channels Channel layout : L R Sampling rate : 48.0 kHz Frame rate : 46.875 FPS (1024 SPF) Compression mode : Lossy Stream size : 42.9 MiB (4%) Title : 日本語 [オリジナル] Language : Japanese Default : Yes Forced : No
04/08 04:00 特摄连载
HD 1080p from U-NEXT. We are planning to upload all U-NEXT Dramas and Movies, we need your Support! Support Us Ali (Zhifubao / QR code): https://i.ibb.co/FWV2ggm/1660626347125.png PayPalMe: https://www.paypal.com/paypalme/sakuragikenji ETH (ERC20): 0xea3286E176099E8C9aBaf25A0edf231374C04E89 USDT (BTC / OMNI): 1Lemw6fu5vG3NdvWGxDxsPX7T7yUb3rNzu General Unique ID : 113389473161088048674508030077314895943 (0x554E04A70BD5E74447F1B6D1D8D99047) Complete name : GARO.Hagane.wo.Tsugu.Mono.EP09.1080p.U-NEXT.WEB-DL.AAC2.0.H.264-MagicStar.mkv Format : Matroska Format version : Version 4 File size : 701 MiB Duration : 23 min 41 s Overall bit rate : 4 138 kb/s Frame rate : 29.970 FPS Encoded date : 2024-03-10 06:35:42 UTC Writing application : mkvmerge v50.0.0 ('Awakenings') 64-bit Writing library : libebml v1.4.0 + libmatroska v1.6.2 Cover : Yes Attachments : cover.png Video ID : 1 Format : AVC Format/Info : Advanced Video Codec Format profile : Main@L4 Format settings : CABAC / 2 Ref Frames Format settings, CABAC : Yes Format settings, Reference fra : 2 frames Codec ID : V_MPEG4/ISO/AVC Duration : 23 min 41 s Bit rate : 4 020 kb/s Width : 1 920 pixels Height : 1 080 pixels Display aspect ratio : 16:9 Frame rate mode : Constant Frame rate : 29.970 (29970/1000) FPS Color space : YUV Chroma subsampling : 4:2:0 Bit depth : 8 bits Scan type : Progressive Bits/(Pixel*Frame) : 0.065 Stream size : 679 MiB (97%) Writing library : x264 core 148 r2665kMod a01e339 Encoding settings : cabac=1 / ref=2 / deblock=1:1:1 / analyse=0x1:0x111 / me=tesa / subme=11 / psy=1 / fade_compensate=0.00 / psy_rd=0.40:0.10 / mixed_ref=1 / me_range=48 / chroma_me=1 / trellis=2 / 8x8dct=0 / cqm=0 / deadzone=21,11 / fast_pskip=1 / chroma_qp_offset=-3 / threads=12 / lookahead_threads=1 / sliced_threads=0 / nr=0 / decimate=1 / interlaced=0 / bluray_compat=0 / constrained_intra=0 / fgo=0 / bframes=2 / b_pyramid=0 / b_adapt=2 / b_bias=0 / direct=3 / weightb=1 / open_gop=0 / weightp=2 / keyint=60 / keyint_min=31 / scenecut=0 / intra_refresh=0 / rc_lookahead=60 / rc=2pass / mbtree=1 / bitrate=4020 / ratetol=1.0 / qcomp=0.80 / qpmin=10 / qpmax=69 / qpstep=15 / cplxblur=20.0 / qblur=0.5 / vbv_maxrate=8050 / vbv_bufsize=8050 / nal_hrd=none / filler=0 / ip_ratio=1.40 / aq=2:0.60 Default : Yes Forced : No Audio ID : 2 Format : AAC LC Format/Info : Advanced Audio Codec Low Complexity Codec ID : A_AAC-2 Duration : 23 min 41 s Bit rate : 125 kb/s Channel(s) : 2 channels Channel layout : L R Sampling rate : 48.0 kHz Frame rate : 46.875 FPS (1024 SPF) Compression mode : Lossy Stream size : 21.3 MiB (3%) Title : 日本語 [オリジナル] Language : Japanese Default : Yes Forced : No
04/08 04:00 特摄连载
HD 1080p from TVer. General Unique ID : 323284867192521059170700930730409245148 (0xF336668FA4D9C51CE79A4299FE7AB9DC) Complete name : [MagicStar] GARO - Hagane wo Tsugu Mono EP09 [WEBDL] [1080p].mkv Format : Matroska Format version : Version 4 File size : 488 MiB Duration : 23 min 40 s Overall bit rate : 2 882 kb/s Frame rate : 29.970 FPS Encoded date : 2024-03-10 06:57:32 UTC Writing application : mkvmerge v50.0.0 ('Awakenings') 64-bit Writing library : libebml v1.4.0 + libmatroska v1.6.2 Video ID : 1 Format : AVC Format/Info : Advanced Video Codec Format profile : High@L4 Format settings : CABAC / 4 Ref Frames Format settings, CABAC : Yes Format settings, Reference fra : 4 frames Codec ID : V_MPEG4/ISO/AVC Duration : 23 min 40 s Bit rate : 2 688 kb/s Width : 1 920 pixels Height : 1 080 pixels Display aspect ratio : 16:9 Frame rate mode : Constant Frame rate : 29.970 (29970/1000) FPS Original frame rate : 29.970 (30000/1001) FPS Color space : YUV Chroma subsampling : 4:2:0 Bit depth : 8 bits Scan type : Progressive Bits/(Pixel*Frame) : 0.043 Stream size : 455 MiB (93%) Writing library : Zencoder Video Encoding System Default : Yes Forced : No Color range : Limited Color primaries : BT.709 Transfer characteristics : BT.709 Matrix coefficients : BT.709 Audio ID : 2 Format : AAC LC Format/Info : Advanced Audio Codec Low Complexity Codec ID : A_AAC-2 Duration : 23 min 40 s Bit rate : 192 kb/s Channel(s) : 2 channels Channel layout : L R Sampling rate : 48.0 kHz Frame rate : 46.875 FPS (1024 SPF) Compression mode : Lossy Stream size : 32.5 MiB (7%) Title : 日本語 [オリジナル] Language : Japanese Default : Yes Forced : No
04/08 04:00 特摄连载
HD 1080p from TTFC. General Unique ID : 6783651121177244030888368014230501065 (0x51A7BD2A0616CF9AAEFA563153F36C9) Complete name : [MagicStar] Kamen Rider Geats Extra - Kamen Rider Gazer [WEBDL] [1080p].mkv Format : Matroska Format version : Version 4 File size : 1.42 GiB Duration : 28 min 35 s Overall bit rate : 7 089 kb/s Frame rate : 23.976 FPS Writing application : Lavf57.48.101 Writing library : Lavf57.48.101 DATE : 2024-04-07T09:33:29.4507205+08:00 Video ID : 1 Format : AVC Format/Info : Advanced Video Codec Format profile : High@L4 Format settings : CABAC / 4 Ref Frames Format settings, CABAC : Yes Format settings, Reference fra : 4 frames Codec ID : V_MPEG4/ISO/AVC Duration : 28 min 35 s Bit rate mode : Constant Nominal bit rate : 8 000 kb/s Width : 1 920 pixels Height : 1 080 pixels Display aspect ratio : 16:9 Frame rate mode : Constant Frame rate : 23.976 (24000/1001) FPS Standard : NTSC Color space : YUV Chroma subsampling : 4:2:0 Bit depth : 8 bits Scan type : Progressive Bits/(Pixel*Frame) : 0.161 Writing library : x264 core 155 Encoding settings : cabac=1 / ref=4 / deblock=1:0:0 / analyse=0x3:0x113 / me=hex / subme=7 / psy=1 / psy_rd=1.00:0.00 / mixed_ref=1 / me_range=16 / chroma_me=1 / trellis=1 / 8x8dct=1 / cqm=1 / deadzone=21,11 / fast_pskip=1 / chroma_qp_offset=-2 / threads=34 / lookahead_threads=5 / sliced_threads=0 / slices=1 / nr=0 / decimate=1 / interlaced=0 / minigop=0 / stitchable=1 / constrained_intra=0 / bframes=3 / b_pyramid=0 / b_adapt=1 / b_bias=0 / direct=1 / weightb=1 / open_gop=0 / weightp=1 / keyint=250 / keyint_min=23 / scenecut=40 / intra_refresh=0 / rc_lookahead=40 / rc=cbr / mbtree=1 / bitrate=8000 / ratetol=1.0 / qcomp=0.60 / qpmin=3 / qpmax=69 / qpstep=4 / vbv_maxrate=8000 / vbv_bufsize=8000 / nal_hrd=cbr / filler=1 / ip_ratio=1.40 / aq=1:1.00 Default : Yes Forced : No Color range : Limited Color primaries : BT.709 Transfer characteristics : BT.709 Matrix coefficients : BT.709 Audio ID : 2 Format : AAC LC Format/Info : Advanced Audio Codec Low Complexity Codec ID : A_AAC-2 Duration : 28 min 35 s Channel(s) : 2 channels Channel layout : L R Sampling rate : 48.0 kHz Frame rate : 46.875 FPS (1024 SPF) Compression mode : Lossy Default : Yes Forced : No
04/07 12:01 特摄连载
HD 1080p from TTFC. General Unique ID : 259256195903252012715335993815018938620 (0xC30AED56267BBE6F36B05F02BEBAA0FC) Complete name : [MagicStar] Bakuage Sentai Boonboomger EP06 [WEBDL] [1080p].mkv Format : Matroska Format version : Version 4 File size : 753 MiB Duration : 23 min 30 s Overall bit rate : 4 481 kb/s Frame rate : 23.976 FPS Writing application : Lavf57.48.101 Writing library : Lavf57.48.101 DATE : 2024-04-07T09:01:44.6828785+08:00 Video ID : 1 Format : AVC Format/Info : Advanced Video Codec Format profile : High@L4 Format settings : CABAC / 4 Ref Frames Format settings, CABAC : Yes Format settings, Reference fra : 4 frames Format settings, GOP : M=3, N=48 Codec ID : V_MPEG4/ISO/AVC Duration : 23 min 30 s Width : 1 920 pixels Height : 1 080 pixels Display aspect ratio : 16:9 Frame rate mode : Constant Frame rate : 23.976 (24000/1001) FPS Color space : YUV Chroma subsampling : 4:2:0 Bit depth : 8 bits Scan type : Progressive Writing library : x264 core 148 Encoding settings : cabac=1 / ref=4 / deblock=1:1:1 / analyse=0x3:0x113 / me=hex / subme=7 / psy=1 / psy_rd=0.40:0.00 / mixed_ref=1 / me_range=16 / chroma_me=1 / trellis=1 / 8x8dct=1 / cqm=0 / deadzone=21,11 / fast_pskip=1 / chroma_qp_offset=-2 / threads=30 / lookahead_threads=5 / sliced_threads=0 / nr=0 / decimate=1 / interlaced=0 / bluray_compat=0 / constrained_intra=0 / bframes=2 / b_pyramid=2 / b_adapt=0 / b_bias=0 / direct=1 / weightb=1 / open_gop=0 / weightp=2 / keyint=48 / keyint_min=25 / scenecut=0 / intra_refresh=0 / rc_lookahead=40 / rc=crf / mbtree=1 / crf=23.0 / qcomp=0.60 / qpmin=0 / qpmax=69 / qpstep=4 / vbv_maxrate=6000 / vbv_bufsize=6000 / crf_max=0.0 / nal_hrd=none / filler=0 / ip_ratio=1.40 / aq=1:0.60 Default : Yes Forced : No Audio ID : 2 Format : AAC LC Format/Info : Advanced Audio Codec Low Complexity Codec ID : A_AAC-2 Duration : 23 min 30 s Channel(s) : 2 channels Channel layout : L R Sampling rate : 48.0 kHz Frame rate : 46.875 FPS (1024 SPF) Compression mode : Lossy Delay relative to video : -42 ms Default : Yes Forced : No
04/07 12:01 特摄连载
HD 1080p from TTFC. General Unique ID : 107556186564313862220674331937321862458 (0x50EA916B1FB8DD9D9044FE4DF275453A) Complete name : [MagicStar] Kamen Rider Gotchard EP30 [WEBDL] [1080p].mkv Format : Matroska Format version : Version 4 File size : 580 MiB Duration : 23 min 30 s Overall bit rate : 3 448 kb/s Frame rate : 23.976 FPS Writing application : Lavf57.48.101 Writing library : Lavf57.48.101 DATE : 2024-04-07T08:34:37.4181174+08:00 Video ID : 1 Format : AVC Format/Info : Advanced Video Codec Format profile : High@L4 Format settings : CABAC / 4 Ref Frames Format settings, CABAC : Yes Format settings, Reference fra : 4 frames Format settings, GOP : M=3, N=48 Codec ID : V_MPEG4/ISO/AVC Duration : 23 min 30 s Width : 1 920 pixels Height : 1 080 pixels Display aspect ratio : 16:9 Frame rate mode : Constant Frame rate : 23.976 (24000/1001) FPS Color space : YUV Chroma subsampling : 4:2:0 Bit depth : 8 bits Scan type : Progressive Writing library : x264 core 148 Encoding settings : cabac=1 / ref=4 / deblock=1:1:1 / analyse=0x3:0x113 / me=hex / subme=7 / psy=1 / psy_rd=0.40:0.00 / mixed_ref=1 / me_range=16 / chroma_me=1 / trellis=1 / 8x8dct=1 / cqm=0 / deadzone=21,11 / fast_pskip=1 / chroma_qp_offset=-2 / threads=30 / lookahead_threads=5 / sliced_threads=0 / nr=0 / decimate=1 / interlaced=0 / bluray_compat=0 / constrained_intra=0 / bframes=2 / b_pyramid=2 / b_adapt=0 / b_bias=0 / direct=1 / weightb=1 / open_gop=0 / weightp=2 / keyint=48 / keyint_min=25 / scenecut=0 / intra_refresh=0 / rc_lookahead=40 / rc=crf / mbtree=1 / crf=23.0 / qcomp=0.60 / qpmin=0 / qpmax=69 / qpstep=4 / vbv_maxrate=6000 / vbv_bufsize=6000 / crf_max=0.0 / nal_hrd=none / filler=0 / ip_ratio=1.40 / aq=1:0.60 Default : Yes Forced : No Audio ID : 2 Format : AAC LC Format/Info : Advanced Audio Codec Low Complexity Codec ID : A_AAC-2 Duration : 23 min 30 s Channel(s) : 2 channels Channel layout : L R Sampling rate : 48.0 kHz Frame rate : 46.875 FPS (1024 SPF) Compression mode : Lossy Delay relative to video : -42 ms Default : Yes Forced : No
04/07 12:01 特摄连载
片名:假面骑士极狐 剧场版 4位王者与黑狐/Kamen Rider Geats Movie 4 Aces and the Black Fox/仮面ライダーギーツ 4人のエースと黒狐 集数:正片+特典映像 音轨:FLAC 日语+FLAC 评论音轨 字幕:日文内封 压制:花京院典明粥 文件发布:DBD制作组 可以使用电子邮箱联系本组,电子邮箱:[email protected] 已经建立TG交流群,欢迎大家加入:https://t.me/DBD_Raws_Discussion 已经成立DBD分流Q群,欢迎大家加入分流大队:560823326 本组已有爱发电主页,希望大家有能力的可以贡献自己一份力量,谢谢大家支持 爱发电主页:https://afdian.net/@112127luji DBD制作组正在招募:翻译,时间轴,校对,字幕,美工,宣传,片源,特效,压制等成员,有兴趣的朋友欢迎加入DBD制作组:1040411052 聊天吹水群(特摄):746546998 聊天吹水群(动漫):740501700 B站主页1:https://space.bilibili.com/97177229 神圣路基艾尔 B站主页2:https://space.bilibili.com/476857955 神圣之路基艾尔 下载工具请使用:qbittorrent,uTorrent等正规下载工具上传,下载完成后请打开软件再尽可能多上传,人人为我,我为人人,让其他人能够尽可能快速地下载并保持上传。 下载地址: 夸克网盘:https://pan.quark.cn/s/4bf2c0ec187e 百度网盘:https://pan.baidu.com/s/18OMl23EKFxgVZPvT5i39rw?pwd=ddr8 提取码:ddr8
04/03 17:46 特摄连载
HD 1080p from TTFC. General Unique ID : 308115899748709654583073061461647241378 (0xE7CCF6B96B88EAFCA06896159ABD30A2) Complete name : [MagicStar] Bakuage Sentai Boonboomger EP05 [WEBDL] [1080p].mkv Format : Matroska Format version : Version 4 File size : 756 MiB Duration : 23 min 30 s Overall bit rate : 4 497 kb/s Frame rate : 23.976 FPS Writing application : Lavf57.48.101 Writing library : Lavf57.48.101 DATE : 2024-03-31T09:00:59.5054985+08:00 Video ID : 1 Format : AVC Format/Info : Advanced Video Codec Format profile : High@L4 Format settings : CABAC / 4 Ref Frames Format settings, CABAC : Yes Format settings, Reference fra : 4 frames Format settings, GOP : M=3, N=48 Codec ID : V_MPEG4/ISO/AVC Duration : 23 min 29 s Width : 1 920 pixels Height : 1 080 pixels Display aspect ratio : 16:9 Frame rate mode : Constant Frame rate : 23.976 (24000/1001) FPS Color space : YUV Chroma subsampling : 4:2:0 Bit depth : 8 bits Scan type : Progressive Writing library : x264 core 148 Encoding settings : cabac=1 / ref=4 / deblock=1:1:1 / analyse=0x3:0x113 / me=hex / subme=7 / psy=1 / psy_rd=0.40:0.00 / mixed_ref=1 / me_range=16 / chroma_me=1 / trellis=1 / 8x8dct=1 / cqm=0 / deadzone=21,11 / fast_pskip=1 / chroma_qp_offset=-2 / threads=30 / lookahead_threads=5 / sliced_threads=0 / nr=0 / decimate=1 / interlaced=0 / bluray_compat=0 / constrained_intra=0 / bframes=2 / b_pyramid=2 / b_adapt=0 / b_bias=0 / direct=1 / weightb=1 / open_gop=0 / weightp=2 / keyint=48 / keyint_min=25 / scenecut=0 / intra_refresh=0 / rc_lookahead=40 / rc=crf / mbtree=1 / crf=23.0 / qcomp=0.60 / qpmin=0 / qpmax=69 / qpstep=4 / vbv_maxrate=6000 / vbv_bufsize=6000 / crf_max=0.0 / nal_hrd=none / filler=0 / ip_ratio=1.40 / aq=1:0.60 Default : Yes Forced : No Audio ID : 2 Format : AAC LC Format/Info : Advanced Audio Codec Low Complexity Codec ID : A_AAC-2 Duration : 23 min 30 s Channel(s) : 2 channels Channel layout : L R Sampling rate : 48.0 kHz Frame rate : 46.875 FPS (1024 SPF) Compression mode : Lossy Delay relative to video : -42 ms Default : Yes Forced : No
03/31 10:00 特摄连载
HD 1080p from TTFC. General Unique ID : 234243698571738425512768914543365460474 (0xB039B2018FD95D5C959CED35858E11FA) Complete name : [MagicStar] Kamen Rider Gotchard EP29 [WEBDL] [1080p].mkv Format : Matroska Format version : Version 4 File size : 722 MiB Duration : 23 min 30 s Overall bit rate : 4 293 kb/s Frame rate : 23.976 FPS Writing application : Lavf57.48.101 Writing library : Lavf57.48.101 DATE : 2024-03-31T08:30:51.3492260+08:00 Video ID : 1 Format : AVC Format/Info : Advanced Video Codec Format profile : High@L4 Format settings : CABAC / 4 Ref Frames Format settings, CABAC : Yes Format settings, Reference fra : 4 frames Format settings, GOP : M=3, N=48 Codec ID : V_MPEG4/ISO/AVC Duration : 23 min 30 s Width : 1 920 pixels Height : 1 080 pixels Display aspect ratio : 16:9 Frame rate mode : Constant Frame rate : 23.976 (24000/1001) FPS Color space : YUV Chroma subsampling : 4:2:0 Bit depth : 8 bits Scan type : Progressive Writing library : x264 core 148 Encoding settings : cabac=1 / ref=4 / deblock=1:1:1 / analyse=0x3:0x113 / me=hex / subme=7 / psy=1 / psy_rd=0.40:0.00 / mixed_ref=1 / me_range=16 / chroma_me=1 / trellis=1 / 8x8dct=1 / cqm=0 / deadzone=21,11 / fast_pskip=1 / chroma_qp_offset=-2 / threads=30 / lookahead_threads=5 / sliced_threads=0 / nr=0 / decimate=1 / interlaced=0 / bluray_compat=0 / constrained_intra=0 / bframes=2 / b_pyramid=2 / b_adapt=0 / b_bias=0 / direct=1 / weightb=1 / open_gop=0 / weightp=2 / keyint=48 / keyint_min=25 / scenecut=0 / intra_refresh=0 / rc_lookahead=40 / rc=crf / mbtree=1 / crf=23.0 / qcomp=0.60 / qpmin=0 / qpmax=69 / qpstep=4 / vbv_maxrate=6000 / vbv_bufsize=6000 / crf_max=0.0 / nal_hrd=none / filler=0 / ip_ratio=1.40 / aq=1:0.60 Default : Yes Forced : No Audio ID : 2 Format : AAC LC Format/Info : Advanced Audio Codec Low Complexity Codec ID : A_AAC-2 Duration : 23 min 30 s Channel(s) : 2 channels Channel layout : L R Sampling rate : 48.0 kHz Frame rate : 46.875 FPS (1024 SPF) Compression mode : Lossy Delay relative to video : -42 ms Default : Yes Forced : No
03/31 10:00 特摄连载