旋风动漫BT资源发布索引 | 汇聚动漫BT/ED资源
HD 1080p from TTFC. General Unique ID : 223018890218643273310257551655727949932 (0xA7C7E039E881C6623CB7922C55B2686C) Complete name : [MagicStar] Kamen Rider Outsiders EP01 [WEBDL] [1080p].mkv Format : Matroska Format version : Version 4 File size : 464 MiB Duration : 19 min 33 s Overall bit rate : 3 317 kb/s Writing application : Lavf57.48.101 Writing library : Lavf57.48.101 Video ID : 1 Format : AVC Format/Info : Advanced Video Codec Format profile : [email protected] Format settings : CABAC / 4 Ref Frames Format settings, CABAC : Yes Format settings, Reference fra : 4 frames Format settings, GOP : M=3, N=48 Codec ID : V_MPEG4/ISO/AVC Duration : 19 min 33 s Width : 1 920 pixels Height : 1 080 pixels Display aspect ratio : 16:9 Frame rate mode : Constant Frame rate : 23.976 (24000/1001) FPS Color space : YUV Chroma subsampling : 4:2:0 Bit depth : 8 bits Scan type : Progressive Writing library : x264 core 148 Encoding settings : cabac=1 / ref=4 / deblock=1:1:1 / analyse=0x3:0x113 / me=hex / subme=7 / psy=1 / psy_rd=0.40:0.00 / mixed_ref=1 / me_range=16 / chroma_me=1 / trellis=1 / 8x8dct=1 / cqm=0 / deadzone=21,11 / fast_pskip=1 / chroma_qp_offset=-2 / threads=12 / lookahead_threads=2 / sliced_threads=0 / nr=0 / decimate=1 / interlaced=0 / bluray_compat=0 / constrained_intra=0 / bframes=2 / b_pyramid=2 / b_adapt=0 / b_bias=0 / direct=1 / weightb=1 / open_gop=0 / weightp=2 / keyint=48 / keyint_min=25 / scenecut=0 / intra_refresh=0 / rc_lookahead=40 / rc=crf / mbtree=1 / crf=23.0 / qcomp=0.60 / qpmin=0 / qpmax=69 / qpstep=4 / vbv_maxrate=6000 / vbv_bufsize=6000 / crf_max=0.0 / nal_hrd=none / filler=0 / ip_ratio=1.40 / aq=1:0.60 Default : Yes Forced : No Audio ID : 2 Format : AAC LC Format/Info : Advanced Audio Codec Low Complexity Codec ID : A_AAC-2 Duration : 19 min 33 s Channel(s) : 2 channels Channel layout : L R Sampling rate : 48.0 kHz Frame rate : 46.875 FPS (1024 SPF) Compression mode : Lossy Delay relative to video : -42 ms Default : Yes Forced : No
01/29 13:31 特摄连载
HD 1080p from Prime Video. Use CBR bitrate mode. We are planning to upload all prime video japan Dramas and Movies, we need your Support! Support Us Ali (Zhifubao / QR code): https://i.ibb.co/FWV2ggm/1660626347125.png PayPalMe: https://www.paypal.com/paypalme/sakuragikenji General Unique ID : 110370622278083286906284268058983295848 (0x53089BD00063C6AC0B0E56D2E6586B68) Complete name : Ultraman.Decker.EP25.1080p.AMZN.WEB-DL.DDP2.0.H.264-MagicStar.mkv Format : Matroska Format version : Version 4 File size : 1.33 GiB Duration : 24 min 14 s Overall bit rate mode : Constant Overall bit rate : 7 830 kb/s Encoded date : UTC 2023-01-27 09:52:44 Writing application : mkvmerge v50.0.0 ('Awakenings') 64-bit Writing library : libebml v1.4.0 + libmatroska v1.6.2 Cover : Yes Attachments : cover.png Video ID : 1 Format : AVC Format/Info : Advanced Video Codec Format profile : [email protected] Format settings : CABAC / 4 Ref Frames Format settings, CABAC : Yes Format settings, Reference fra : 4 frames Codec ID : V_MPEG4/ISO/AVC Duration : 24 min 14 s Bit rate mode : Constant Bit rate : 7 590 kb/s Nominal bit rate : 10 000 kb/s Width : 1 920 pixels Height : 1 080 pixels Display aspect ratio : 16:9 Frame rate mode : Constant Frame rate : 23.976 (24000/1001) FPS Color space : YUV Chroma subsampling : 4:2:0 Bit depth : 8 bits Scan type : Progressive Bits/(Pixel*Frame) : 0.153 Stream size : 1.29 GiB (97%) Default : Yes Forced : No Color range : Limited Color primaries : BT.709 Transfer characteristics : BT.709 Matrix coefficients : BT.709 Audio ID : 2 Format : E-AC-3 Format/Info : Enhanced AC-3 Commercial name : Dolby Digital Plus Codec ID : A_EAC3 Duration : 24 min 14 s Bit rate mode : Constant Bit rate : 224 kb/s Channel(s) : 2 channels Channel layout : L R Sampling rate : 48.0 kHz Frame rate : 31.250 FPS (1536 SPF) Compression mode : Lossy Stream size : 38.9 MiB (3%) Language : Japanese Service kind : Complete Main Default : Yes Forced : No
01/29 07:08 特摄连载
新年到了,DBD制作组在这里祝大家新年快乐,很感谢大家对我们的支持,我们组准备了很多新年礼物,大家新年观影愉快! 铠甲勇士第一部1080P高清修复版,这次在视频中压制了字幕,如果大家习惯看字幕的话,观看体验会更好,感谢小小新11提供字幕并匹配本组的视频。 片名:铠甲勇士/Armor Hero 集数:01-52TV全集 字幕:简繁外挂 字幕提供:小小新11 繁化:夜神月 压制:黑暗路基艾尔,Yhgust,Amor丶文天 文件发布:DBD制作组 已经成立DBD分流Q群,欢迎大家加入分流大队:560823326 本组已有爱发电主页,希望大家有能力的可以贡献自己一份力量,谢谢大家支持 爱发电主页:https://afdian.net/@112127luji DBD制作组正在招募:翻译,时间轴,校对,字幕,美工,宣传,片源,特效,压制等成员,有兴趣的朋友欢迎加入DBD制作组:1040411052 聊天吹水群(特摄):746546998 聊天吹水群(动漫):1158412873 B站主页1:https://space.bilibili.com/97177229 神圣路基艾尔 B站主页2:https://space.bilibili.com/476857955 神圣之路基艾尔 下载工具请使用:qbittorrent,uTorrent等正规下载工具上传,下载完成后请打开软件再尽可能多上传,人人为我,我为人人,让其他人能够尽可能快速地下载并保持上传。
01/23 02:34 特摄连载
新年到了,DBD製作組在這裏祝大家新年快樂,很感謝大家對我們的支持,我們組準備了很多新年禮物,大家新年觀影愉快! 鎧甲勇士第一部1080P高清修復版,這次在視頻中壓製了字幕,如果大家習慣看字幕的話,觀看體驗會更好,感謝小小新11提供字幕並匹配本組的視頻。 片名:鎧甲勇士/Armor Hero 集數:01-52TV全集 字幕:繁體內嵌 字幕提供:小小新11 壓製:黑暗路基艾爾,Yhgust,Amor丶文天 繁化:夜神月 文件發布:DBD製作組 已經成立DBD分流Q群,歡迎大家加入分流大隊:560823326 本組已有愛發電主頁,希望大家有能力的可以貢獻自己一份力量,謝謝大家支持 愛發電主頁:https://afdian.net/@112127luji DBD製作組正在招募:翻譯,時間軸,校對,字幕,美工,宣傳,片源,特效,壓製等成員,有興趣的朋友歡迎加入DBD製作組:1040411052 聊天吹水群(特攝):746546998 聊天吹水群(動漫):1158412873 B站主頁1:https://space.bilibili.com/97177229 神聖路基艾爾 B站主頁2:https://space.bilibili.com/476857955 神聖之路基艾爾 下載工具請使用:qbittorrent,uTorrent等正規下載工具上傳,下載完成後請打開軟件再盡可能多上傳,人人為我,我為人人,讓其他人能夠盡可能快速地下載並保持上傳。
01/23 02:34 特摄连载
新年到了,DBD制作组在这里祝大家新年快乐,很感谢大家对我们的支持,我们组准备了很多新年礼物,大家新年观影愉快! 铠甲勇士第一部1080P高清修复版,这次在视频中压制了字幕,如果大家习惯看字幕的话,观看体验会更好,感谢小小新11提供字幕并匹配本组的视频。 片名:铠甲勇士/Armor Hero 集数:01-52TV全集 字幕:简体内嵌 字幕提供:小小新11 压制:黑暗路基艾尔,Yhgust,Amor丶文天 文件发布:DBD制作组 已经成立DBD分流Q群,欢迎大家加入分流大队:560823326 本组已有爱发电主页,希望大家有能力的可以贡献自己一份力量,谢谢大家支持 爱发电主页:https://afdian.net/@112127luji DBD制作组正在招募:翻译,时间轴,校对,字幕,美工,宣传,片源,特效,压制等成员,有兴趣的朋友欢迎加入DBD制作组:1040411052 聊天吹水群(特摄):746546998 聊天吹水群(动漫):1158412873 B站主页1:https://space.bilibili.com/97177229 神圣路基艾尔 B站主页2:https://space.bilibili.com/476857955 神圣之路基艾尔 下载工具请使用:qbittorrent,uTorrent等正规下载工具上传,下载完成后请打开软件再尽可能多上传,人人为我,我为人人,让其他人能够尽可能快速地下载并保持上传。
01/23 02:34 特摄连载
HD 1080p from Prime Video. Use CBR bitrate mode. We are planning to upload all prime video japan Dramas and Movies, we need your Support! Support Us Ali (Zhifubao / QR code): https://i.ibb.co/FWV2ggm/1660626347125.png PayPalMe: https://www.paypal.com/paypalme/sakuragikenji General Unique ID : 111237202093279297854355151536332690816 (0x53AF817F003BB3B0F5B8BE73BAC35580) Complete name : Ultraman.Decker.EP24.1080p.AMZN.WEB-DL.DDP2.0.H.264-MagicStar.mkv Format : Matroska Format version : Version 4 File size : 1.55 GiB Duration : 24 min 34 s Overall bit rate mode : Constant Overall bit rate : 9 055 kb/s Encoded date : UTC 2023-01-20 23:44:27 Writing application : mkvmerge v50.0.0 ('Awakenings') 64-bit Writing library : libebml v1.4.0 + libmatroska v1.6.2 Cover : Yes Attachments : cover.png Video ID : 1 Format : AVC Format/Info : Advanced Video Codec Format profile : [email protected] Format settings : CABAC / 4 Ref Frames Format settings, CABAC : Yes Format settings, Reference fra : 4 frames Codec ID : V_MPEG4/ISO/AVC Duration : 24 min 34 s Bit rate mode : Constant Bit rate : 8 820 kb/s Nominal bit rate : 10 000 kb/s Width : 1 920 pixels Height : 1 080 pixels Display aspect ratio : 16:9 Frame rate mode : Constant Frame rate : 23.976 (24000/1001) FPS Color space : YUV Chroma subsampling : 4:2:0 Bit depth : 8 bits Scan type : Progressive Bits/(Pixel*Frame) : 0.177 Stream size : 1.51 GiB (97%) Default : Yes Forced : No Color range : Limited Color primaries : BT.709 Transfer characteristics : BT.709 Matrix coefficients : BT.709 Audio ID : 2 Format : E-AC-3 Format/Info : Enhanced AC-3 Commercial name : Dolby Digital Plus Codec ID : A_EAC3 Duration : 24 min 34 s Bit rate mode : Constant Bit rate : 224 kb/s Channel(s) : 2 channels Channel layout : L R Sampling rate : 48.0 kHz Frame rate : 31.250 FPS (1536 SPF) Compression mode : Lossy Stream size : 39.4 MiB (2%) Language : Japanese Service kind : Complete Main Default : Yes Forced : No
01/22 13:58 特摄连载
HD 1080p from Prime Video. Use CBR bitrate mode. We are planning to upload all prime video japan Dramas and Movies, we need your Support! Support Us Ali (Zhifubao / QR code): https://i.ibb.co/FWV2ggm/1660626347125.png PayPalMe: https://www.paypal.com/paypalme/sakuragikenji General Unique ID : 67323232598575869425447591337559377535 (0x32A5FBA35CA3F2E3CF224DFB60E8C67F) Complete name : Ultraman.Decker.EP23.1080p.AMZN.WEB-DL.DDP2.0.H.264-MagicStar.mkv Format : Matroska Format version : Version 4 File size : 1.57 GiB Duration : 24 min 15 s Overall bit rate mode : Constant Overall bit rate : 9 281 kb/s Encoded date : UTC 2023-01-02 06:18:37 Writing application : mkvmerge v50.0.0 ('Awakenings') 64-bit Writing library : libebml v1.4.0 + libmatroska v1.6.2 Cover : Yes Attachments : cover.png Video ID : 1 Format : AVC Format/Info : Advanced Video Codec Format profile : [email protected] Format settings : CABAC / 4 Ref Frames Format settings, CABAC : Yes Format settings, Reference fra : 4 frames Codec ID : V_MPEG4/ISO/AVC Duration : 24 min 15 s Bit rate mode : Constant Bit rate : 9 044 kb/s Nominal bit rate : 10 000 kb/s Width : 1 920 pixels Height : 1 080 pixels Display aspect ratio : 16:9 Frame rate mode : Constant Frame rate : 23.976 (24000/1001) FPS Color space : YUV Chroma subsampling : 4:2:0 Bit depth : 8 bits Scan type : Progressive Bits/(Pixel*Frame) : 0.182 Stream size : 1.53 GiB (97%) Default : Yes Forced : No Color range : Limited Color primaries : BT.709 Transfer characteristics : BT.709 Matrix coefficients : BT.709 Audio ID : 2 Format : E-AC-3 Format/Info : Enhanced AC-3 Commercial name : Dolby Digital Plus Codec ID : A_EAC3 Duration : 24 min 15 s Bit rate mode : Constant Bit rate : 224 kb/s Channel(s) : 2 channels Channel layout : L R Sampling rate : 48.0 kHz Frame rate : 31.250 FPS (1536 SPF) Compression mode : Lossy Stream size : 38.9 MiB (2%) Language : Japanese Service kind : Complete Main Default : Yes Forced : No
01/22 13:58 特摄连载
HD 1080p from Youtube official channel. English and Chinese subtitles added. General Unique ID : 50356809168837890892341053003744254325 (0x25E25E610A1F3F3BC40216FD7F719975) Complete name : [MagicStar] Ultraman Decker EP25 END [WEBDL] [1080p] [YOUTUBE].mkv Format : Matroska Format version : Version 4 File size : 649 MiB Duration : 30 min 53 s Overall bit rate mode : Variable Overall bit rate : 2 938 kb/s Encoded date : UTC 2023-01-22 01:13:02 Writing application : mkvmerge v50.0.0 ('Awakenings') 64-bit Writing library : libebml v1.4.0 + libmatroska v1.6.2 Video ID : 1 Format : AVC Format/Info : Advanced Video Codec Format profile : [email protected] Format settings : CABAC / 3 Ref Frames Format settings, CABAC : Yes Format settings, Reference fra : 3 frames Codec ID : V_MPEG4/ISO/AVC Duration : 30 min 53 s Bit rate mode : Variable Bit rate : 2 808 kb/s Maximum bit rate : 40.0 Mb/s Width : 1 920 pixels Height : 1 080 pixels Display aspect ratio : 16:9 Frame rate mode : Constant Frame rate : 23.976 (24000/1001) FPS Color space : YUV Chroma subsampling : 4:2:0 Bit depth : 8 bits Scan type : Progressive Bits/(Pixel*Frame) : 0.056 Stream size : 620 MiB (96%) Default : Yes Forced : No Color range : Limited Color primaries : BT.709 Transfer characteristics : BT.709 Matrix coefficients : BT.709 Audio ID : 2 Format : AAC LC Format/Info : Advanced Audio Codec Low Complexity Codec ID : A_AAC-2 Duration : 30 min 53 s Bit rate : 128 kb/s Channel(s) : 2 channels Channel layout : L R Sampling rate : 44.1 kHz Frame rate : 43.066 FPS (1024 SPF) Compression mode : Lossy Stream size : 28.3 MiB (4%) Language : Japanese Default : Yes Forced : No
01/22 13:58 特摄连载
HD 1080p from TTFC. General Unique ID : 314458929187687243364923361311765068960 (0xEC9296388A90498B570B2143A6287CA0) Complete name : [MagicStar] Avataro Sentai Donbrothers EP45 [WEBDL] [1080p].mkv Format : Matroska Format version : Version 4 File size : 694 MiB Duration : 23 min 35 s Overall bit rate : 4 115 kb/s Writing application : Lavf57.48.101 Writing library : Lavf57.48.101 Video ID : 1 Format : AVC Format/Info : Advanced Video Codec Format profile : [email protected] Format settings : CABAC / 4 Ref Frames Format settings, CABAC : Yes Format settings, Reference fra : 4 frames Format settings, GOP : M=3, N=48 Codec ID : V_MPEG4/ISO/AVC Duration : 23 min 35 s Width : 1 920 pixels Height : 1 080 pixels Display aspect ratio : 16:9 Frame rate mode : Constant Frame rate : 23.976 (24000/1001) FPS Color space : YUV Chroma subsampling : 4:2:0 Bit depth : 8 bits Scan type : Progressive Writing library : x264 core 148 Encoding settings : cabac=1 / ref=4 / deblock=1:1:1 / analyse=0x3:0x113 / me=hex / subme=7 / psy=1 / psy_rd=0.40:0.00 / mixed_ref=1 / me_range=16 / chroma_me=1 / trellis=1 / 8x8dct=1 / cqm=0 / deadzone=21,11 / fast_pskip=1 / chroma_qp_offset=-2 / threads=12 / lookahead_threads=2 / sliced_threads=0 / nr=0 / decimate=1 / interlaced=0 / bluray_compat=0 / constrained_intra=0 / bframes=2 / b_pyramid=2 / b_adapt=0 / b_bias=0 / direct=1 / weightb=1 / open_gop=0 / weightp=2 / keyint=48 / keyint_min=25 / scenecut=0 / intra_refresh=0 / rc_lookahead=40 / rc=crf / mbtree=1 / crf=23.0 / qcomp=0.60 / qpmin=0 / qpmax=69 / qpstep=4 / vbv_maxrate=6000 / vbv_bufsize=6000 / crf_max=0.0 / nal_hrd=none / filler=0 / ip_ratio=1.40 / aq=1:0.60 Default : Yes Forced : No Audio ID : 2 Format : AAC LC Format/Info : Advanced Audio Codec Low Complexity Codec ID : A_AAC-2 Duration : 23 min 35 s Channel(s) : 2 channels Channel layout : L R Sampling rate : 48.0 kHz Frame rate : 46.875 FPS (1024 SPF) Compression mode : Lossy Delay relative to video : -42 ms Default : Yes Forced : No
01/22 13:57 特摄连载
HD 1080p from TTFC. General Unique ID : 79242099807733557096731934334046428253 (0x3B9D792960053346E9F720AA585FDC5D) Complete name : [MagicStar] Avataro Sentai Donbrothers EP44 [WEBDL] [1080p].mkv Format : Matroska Format version : Version 4 File size : 662 MiB Duration : 23 min 35 s Overall bit rate : 3 925 kb/s Writing application : Lavf57.48.101 Writing library : Lavf57.48.101 Video ID : 1 Format : AVC Format/Info : Advanced Video Codec Format profile : [email protected] Format settings : CABAC / 4 Ref Frames Format settings, CABAC : Yes Format settings, Reference fra : 4 frames Format settings, GOP : M=3, N=48 Codec ID : V_MPEG4/ISO/AVC Duration : 23 min 35 s Width : 1 920 pixels Height : 1 080 pixels Display aspect ratio : 16:9 Frame rate mode : Constant Frame rate : 23.976 (24000/1001) FPS Color space : YUV Chroma subsampling : 4:2:0 Bit depth : 8 bits Scan type : Progressive Writing library : x264 core 148 Encoding settings : cabac=1 / ref=4 / deblock=1:1:1 / analyse=0x3:0x113 / me=hex / subme=7 / psy=1 / psy_rd=0.40:0.00 / mixed_ref=1 / me_range=16 / chroma_me=1 / trellis=1 / 8x8dct=1 / cqm=0 / deadzone=21,11 / fast_pskip=1 / chroma_qp_offset=-2 / threads=12 / lookahead_threads=2 / sliced_threads=0 / nr=0 / decimate=1 / interlaced=0 / bluray_compat=0 / constrained_intra=0 / bframes=2 / b_pyramid=2 / b_adapt=0 / b_bias=0 / direct=1 / weightb=1 / open_gop=0 / weightp=2 / keyint=48 / keyint_min=25 / scenecut=0 / intra_refresh=0 / rc_lookahead=40 / rc=crf / mbtree=1 / crf=23.0 / qcomp=0.60 / qpmin=0 / qpmax=69 / qpstep=4 / vbv_maxrate=6000 / vbv_bufsize=6000 / crf_max=0.0 / nal_hrd=none / filler=0 / ip_ratio=1.40 / aq=1:0.60 Default : Yes Forced : No Audio ID : 2 Format : AAC LC Format/Info : Advanced Audio Codec Low Complexity Codec ID : A_AAC-2 Duration : 23 min 35 s Channel(s) : 2 channels Channel layout : L R Sampling rate : 48.0 kHz Frame rate : 46.875 FPS (1024 SPF) Compression mode : Lossy Delay relative to video : -42 ms Default : Yes Forced : No
01/22 13:57 特摄连载
HD 1080p from TVer. General Unique ID : 281400196959201068779926667412980797545 (0xD3B3B4E1A4469363824F969D38729069) Complete name : [MagicStar] Ultraman Decker EP25 END [WEBDL] [1080p].mkv Format : Matroska Format version : Version 4 File size : 480 MiB Duration : 24 min 21 s Overall bit rate mode : Variable Overall bit rate : 2 758 kb/s Writing application : Lavf57.48.101 Writing library : Lavf57.48.101 Video ID : 1 Format : AVC Format/Info : Advanced Video Codec Format profile : [email protected] Format settings : CABAC / 4 Ref Frames Format settings, CABAC : Yes Format settings, Reference fra : 4 frames Codec ID : V_MPEG4/ISO/AVC Duration : 24 min 20 s Bit rate mode : Variable Maximum bit rate : 4 048 kb/s Width : 1 920 pixels Height : 1 080 pixels Display aspect ratio : 16:9 Frame rate mode : Constant Frame rate : 29.970 (30000/1001) FPS Color space : YUV Chroma subsampling : 4:2:0 Bit depth : 8 bits Scan type : Progressive Default : No Forced : No Color range : Limited Color primaries : BT.709 Transfer characteristics : BT.709 Matrix coefficients : BT.709 VARIANT_BITRATE : 3168000 Audio ID : 2 Format : AAC LC Format/Info : Advanced Audio Codec Low Complexity Codec ID : A_AAC-2 Duration : 24 min 21 s Channel(s) : 2 channels Channel layout : L R Sampling rate : 48.0 kHz Frame rate : 46.875 FPS (1024 SPF) Compression mode : Lossy Delay relative to video : -67 ms Language : English Default : Yes Forced : No Comment : en (Main) VARIANT_BITRATE : 334400
01/22 13:57 特摄连载
HD 1080p from TTFC. General Unique ID : 337696853659046165922645663465959597849 (0xFE0E0C5AAF27F3E12C0073551E402719) Complete name : [MagicStar] Kamen Rider Geats EP18 [WEBDL] [1080p].mkv Format : Matroska Format version : Version 4 File size : 692 MiB Duration : 23 min 35 s Overall bit rate : 4 100 kb/s Writing application : Lavf57.48.101 Writing library : Lavf57.48.101 Video ID : 1 Format : AVC Format/Info : Advanced Video Codec Format profile : [email protected] Format settings : CABAC / 4 Ref Frames Format settings, CABAC : Yes Format settings, Reference fra : 4 frames Format settings, GOP : M=3, N=48 Codec ID : V_MPEG4/ISO/AVC Duration : 23 min 34 s Width : 1 920 pixels Height : 1 080 pixels Display aspect ratio : 16:9 Frame rate mode : Constant Frame rate : 23.976 (24000/1001) FPS Color space : YUV Chroma subsampling : 4:2:0 Bit depth : 8 bits Scan type : Progressive Writing library : x264 core 148 Encoding settings : cabac=1 / ref=4 / deblock=1:1:1 / analyse=0x3:0x113 / me=hex / subme=7 / psy=1 / psy_rd=0.40:0.00 / mixed_ref=1 / me_range=16 / chroma_me=1 / trellis=1 / 8x8dct=1 / cqm=0 / deadzone=21,11 / fast_pskip=1 / chroma_qp_offset=-2 / threads=12 / lookahead_threads=2 / sliced_threads=0 / nr=0 / decimate=1 / interlaced=0 / bluray_compat=0 / constrained_intra=0 / bframes=2 / b_pyramid=2 / b_adapt=0 / b_bias=0 / direct=1 / weightb=1 / open_gop=0 / weightp=2 / keyint=48 / keyint_min=25 / scenecut=0 / intra_refresh=0 / rc_lookahead=40 / rc=crf / mbtree=1 / crf=23.0 / qcomp=0.60 / qpmin=0 / qpmax=69 / qpstep=4 / vbv_maxrate=6000 / vbv_bufsize=6000 / crf_max=0.0 / nal_hrd=none / filler=0 / ip_ratio=1.40 / aq=1:0.60 Default : Yes Forced : No Audio ID : 2 Format : AAC LC Format/Info : Advanced Audio Codec Low Complexity Codec ID : A_AAC-2 Duration : 23 min 35 s Channel(s) : 2 channels Channel layout : L R Sampling rate : 48.0 kHz Frame rate : 46.875 FPS (1024 SPF) Compression mode : Lossy Delay relative to video : -42 ms Default : Yes Forced : No
01/22 13:57 特摄连载
HD 1080p from TTFC. General Unique ID : 326627054310459157407470549011898476233 (0xF5BA151BBA74A4EBA64732E612BAA6C9) Complete name : [MagicStar] Kamen Rider Geats EP19 [WEBDL] [1080p].mkv Format : Matroska Format version : Version 4 File size : 605 MiB Duration : 23 min 35 s Overall bit rate : 3 589 kb/s Writing application : Lavf57.48.101 Writing library : Lavf57.48.101 Video ID : 1 Format : AVC Format/Info : Advanced Video Codec Format profile : [email protected] Format settings : CABAC / 4 Ref Frames Format settings, CABAC : Yes Format settings, Reference fra : 4 frames Format settings, GOP : M=3, N=48 Codec ID : V_MPEG4/ISO/AVC Duration : 23 min 35 s Width : 1 920 pixels Height : 1 080 pixels Display aspect ratio : 16:9 Frame rate mode : Constant Frame rate : 23.976 (24000/1001) FPS Color space : YUV Chroma subsampling : 4:2:0 Bit depth : 8 bits Scan type : Progressive Writing library : x264 core 148 Encoding settings : cabac=1 / ref=4 / deblock=1:1:1 / analyse=0x3:0x113 / me=hex / subme=7 / psy=1 / psy_rd=0.40:0.00 / mixed_ref=1 / me_range=16 / chroma_me=1 / trellis=1 / 8x8dct=1 / cqm=0 / deadzone=21,11 / fast_pskip=1 / chroma_qp_offset=-2 / threads=12 / lookahead_threads=2 / sliced_threads=0 / nr=0 / decimate=1 / interlaced=0 / bluray_compat=0 / constrained_intra=0 / bframes=2 / b_pyramid=2 / b_adapt=0 / b_bias=0 / direct=1 / weightb=1 / open_gop=0 / weightp=2 / keyint=48 / keyint_min=25 / scenecut=0 / intra_refresh=0 / rc_lookahead=40 / rc=crf / mbtree=1 / crf=23.0 / qcomp=0.60 / qpmin=0 / qpmax=69 / qpstep=4 / vbv_maxrate=6000 / vbv_bufsize=6000 / crf_max=0.0 / nal_hrd=none / filler=0 / ip_ratio=1.40 / aq=1:0.60 Default : Yes Forced : No Audio ID : 2 Format : AAC LC Format/Info : Advanced Audio Codec Low Complexity Codec ID : A_AAC-2 Duration : 23 min 35 s Channel(s) : 2 channels Channel layout : L R Sampling rate : 48.0 kHz Frame rate : 46.875 FPS (1024 SPF) Compression mode : Lossy Delay relative to video : -42 ms Default : Yes Forced : No
01/22 13:57 特摄连载
新年到了,DBD制作组在这里祝大家新年快乐,很感谢大家对我们的支持,我们组准备了很多新年礼物,大家新年观影愉快! 片名:假面骑士01/假面骑士零一/Kamen Rider zero-one/仮面ライダーゼロワン 集数:01-45TV全集+剧场版:假面骑士令和第一世代,真实×时间+特别篇:超级工作大战,社长特别篇,射击特别篇+千骑计划+外传:假面骑士灭亡迅雷,假面骑士巴尔坎&瓦尔基里+特典映像 压制:黑暗路基艾尔 文件发布:DBD制作组 已经成立DBD分流Q群,欢迎大家加入分流大队:560823326 本组已有爱发电主页,希望大家有能力的可以贡献自己一份力量,谢谢大家支持 爱发电主页:https://afdian.net/@112127luji DBD制作组正在招募:翻译,时间轴,校对,字幕,美工,宣传,片源,特效,压制等成员,有兴趣的朋友欢迎加入DBD制作组:1040411052 聊天吹水群(特摄):746546998 聊天吹水群(动漫):1158412873 B站主页1:https://space.bilibili.com/97177229 神圣路基艾尔 B站主页2:https://space.bilibili.com/476857955 神圣之路基艾尔 下载工具请使用:qbittorrent,uTorrent等正规下载工具上传,下载完成后请打开软件再尽可能多上传,人人为我,我为人人,让其他人能够尽可能快速地下载并保持上传。
01/21 19:08 特摄连载
新年到了,DBD制作组在这里祝大家新年快乐,很感谢大家对我们的支持,我们组准备了很多新年礼物,大家新年观影愉快! 特典里面仍然有老演员回归,东光太郎(泰罗人间体)的演员也在访谈中,这个有点难得,毕竟这个演员因为一些原因之后没再当过泰罗的人间体 片名:泰罗奥特曼/Ultraman Tarou/ウルトラマンタロウ 集数:01-53TV全集+剧场版 奥特之母如同太阳一般,燃烧!奥特六兄弟,吸血之花是少女之精+特典映像 压制:黑暗路基艾尔 文件发布:DBD制作组 已经成立DBD分流Q群,欢迎大家加入分流大队:560823326 本组已有爱发电主页,希望大家有能力的可以贡献自己一份力量,谢谢大家支持 爱发电主页:https://afdian.net/@112127luji DBD制作组正在招募:翻译,时间轴,校对,字幕,美工,宣传,片源,特效,压制等成员,有兴趣的朋友欢迎加入DBD制作组:1040411052 聊天吹水群(特摄):746546998 聊天吹水群(动漫):1158412873 B站主页1:https://space.bilibili.com/97177229 神圣路基艾尔 B站主页2:https://space.bilibili.com/476857955 神圣之路基艾尔 下载工具请使用:qbittorrent,uTorrent等正规下载工具上传,下载完成后请打开软件再尽可能多上传,人人为我,我为人人,让其他人能够尽可能快速地下载并保持上传。
01/21 19:08 特摄连载