首页 » 特摄 » [MagicStar] 特利迦奥特曼 / ウルトラマントリガー EP11 [WEBDL] [1080p] [AMZN]【生】
  • 资源分类:BT分享»特摄
  • 资源提供:特摄连载
  • 分享情况:  种子:16,下载:141,完成:37
  • 健  康  度:14%
  • 文件大小:1.1GB  (查看文件详情)
  • 发布日期:2021/10/08 19:21:32
  • 下载本站资源,您必须安装相应的P2P下载软件。我们推荐使用BitComet正式版下载BT资源,eMule下载电驴资源。
  • 该资源由网友 特摄连载 提供,分享目的仅供大家学习与参考,如有侵权,请联系:[email protected]及时删除!

资源介绍 | 下载本资源


HD 1080p from Prime Video.
alt text
alt text

General Unique ID                      : 199557906129478697817661763754720318657 (0x9621746792ADC90B6FF13D51531954C1) Complete name                  : Ultraman.Trigger.EP11.1080p.AMZN.WEB-DL.DDP2.0.H.264-MagicStar.mkv Format                         : Matroska Format version                 : Version 4 File size                      : 1.09 GiB Duration                       : 24 min 36 s Overall bit rate               : 6 330 kb/s Encoded date                   : UTC 2021-10-07 23:30:00 Writing application            : mkvmerge v50.0.0 ('Awakenings') 64-bit Writing library                : libebml v1.4.0 + libmatroska v1.6.2 Cover                          : Yes Attachments                    : cover.png  Video ID                             : 1 Format                         : AVC Format/Info                    : Advanced Video Codec Format profile                 : [email protected] Format settings                : CABAC / 4 Ref Frames Format settings, CABAC         : Yes Format settings, Reference fra : 4 frames Codec ID                       : V_MPEG4/ISO/AVC Duration                       : 24 min 36 s Bit rate                       : 6 091 kb/s Width                          : 1 920 pixels Height                         : 1 080 pixels Display aspect ratio           : 16:9 Frame rate mode                : Constant Frame rate                     : 23.976 (24000/1001) FPS Color space                    : YUV Chroma subsampling             : 4:2:0 Bit depth                      : 8 bits Scan type                      : Progressive Bits/(Pixel*Frame)             : 0.123 Stream size                    : 1.05 GiB (96%) Default                        : Yes Forced                         : No Color range                    : Limited Color primaries                : BT.709 Transfer characteristics       : BT.709 Matrix coefficients            : BT.709  Audio ID                             : 2 Format                         : E-AC-3 Format/Info                    : Enhanced AC-3 Commercial name                : Dolby Digital Plus Codec ID                       : A_EAC3 Duration                       : 24 min 36 s Bit rate mode                  : Constant Bit rate                       : 224 kb/s Channel(s)                     : 2 channels Channel layout                 : L R Sampling rate                  : 48.0 kHz Frame rate                     : 31.250 FPS (1536 SPF) Compression mode               : Lossy Stream size                    : 39.4 MiB (4%) Language                       : Japanese Service kind                   : Complete Main Default                        : Yes Forced                         : No

文件信息 | 下载本资源 文件总数:1,文件总大小:1.1GB

Info Hash:f6f34c83a3eb79d720259672f4aa5d900a99e946

文件信息:1 个文件, 总大小 1.1GB

Tracker:http://tracker.xfapi.top:6868/announce

Tracker:http://tracker.xfapi.top:6868/scrape

 
  • [MagicStar] Ultraman Trigger EP11 [WEBDL] [1080p] [AMZN]
    • Ultraman.Trigger.EP11.1080p.AMZN.WEB-DL.DDP2.0.H.264-MagicStar.mkv(1.1GB)
 

网友评论(0) | 下载本资源

正在加载评论,请稍候......
发表我的看法(评论内容长度最多允许 1000 字)
评论内容
  
发表评论小贴士:
1.类似「顶、沙发」之类没有营养的文字,对勤劳贡献的发布者来说是令人沮丧的反馈信息。
2.提问之前请再仔细看一遍楼主的说明,或许是您遗漏了。
3.勿催片。请相信动漫字幕组对分享是富有激情的,如果确有更新资源,您一定能搜索到。
4.请勿到处挖坑绊人、招贴广告。既占空间让人厌烦,又没人会搭理,于人于己都无利。
5.如果您发现自己的评论不见了,请参考以上4条。
验证码