首页 » 音乐 » [Xeon-Raw] fripSide Concert Tour 2018-2019 -infinite synthesis 4-(2019.03.08(金)パシフィコ横浜国立大ホール) [Ma10p FLAC MKV]
  • 资源分类:BT分享»音乐
  • 资源提供:音乐达人
  • 分享情况:  种子:29,下载:227,完成:44
  • 健  康  度:49%
  • 文件大小:10.3GB  (查看文件详情)
  • 发布日期:2020/01/09 20:59:58
  • 下载本站资源,您必须安装相应的P2P下载软件。我们推荐使用BitComet正式版下载BT资源,eMule下载电驴资源。
  • 该资源由网友 音乐达人 提供,分享目的仅供大家学习与参考,如有侵权,请联系:[email protected]及时删除!

资源介绍 | 下载本资源


fripSide Concert Tour 2018-2019 -infinite synthesis 4-

(2019 03 08(金)パシフィコ横浜国立大ホール)

匿名@U2

https://u2.dmhy.org/details.php?id=36473&hit=1

<感谢放流,感谢放流,感谢放流>

啊切~

General

Unique ID : 289517545543103547731966888500465505278 (0xD9CF0D10DF397AE3CD417581B11413FE)

Complete name : [Xeon-Raw] fripSide Concert Tour 2018-2019 -infinite synthesis 4-(2019.03.08(金)パシフィコ横浜国立大ホール)[Ma10p_1080p]\[Xeon-Raw] fripSide Concert Tour 2018-2019 -infinite synthesis 4- [Ma10p_1080p][x265_flac].mkv

Format : Matroska

Format version : Version 4 / Version 2

File size : 9.02 GiB

Duration : 2 h 26 min

Overall bit rate mode : Variable

Overall bit rate : 8 790 kb/s

Encoded date : UTC 2020-01-08 05:09:04

Writing application : mkvmerge v42.0.0 ('Overtime') 64-bit

Writing library : libebml v1.3.10 + libmatroska v1.5.2

Video

ID : 1

Format : HEVC

Format/Info : High Efficiency Video Coding

Format profile : Main [email protected]@Main

Codec ID : V_MPEGH/ISO/HEVC

Duration : 2 h 26 min

Bit rate : 7 713 kb/s

Width : 1 920 pixels

Height : 1 080 pixels

Display aspect ratio : 16:9

Frame rate mode : Constant

Frame rate : 23.976 (24000/1001) FPS

Color space : YUV

Chroma subsampling : 4:2:0

Bit depth : 10 bits

Bits/(Pixel*Frame) : 0.155

Stream size : 7.92 GiB (88%)

Writing library : x265 3.1.276650bab70f9:[Windows][MSVC 1922][64 bit] 10bit

Encoding settings : cpuid=1111039 / frame-threads=4 / numa-pools=+ / wpp / no-pmode / no-pme / no-psnr / no-ssim / log-level=2 / input-csp=1 / input-res=1920x1080 / interlace=0 / total-frames=0 / level-idc=0 / high-tier=1 / uhd-bd=0 / ref=4 / no-allow-non-conformance / no-repeat-headers / annexb / no-aud / no-hrd / info / hash=0 / no-temporal-layers / no-open-gop / min-keyint=1 / keyint=480 / gop-lookahead=0 / bframes=6 / b-adapt=2 / b-pyramid / bframe-bias=0 / rc-lookahead=80 / lookahead-slices=0 / scenecut=40 / radl=0 / no-splice / no-intra-refresh / ctu=32 / min-cu-size=8 / rect / no-amp / max-tu-size=32 / tu-inter-depth=3 / tu-intra-depth=3 / limit-tu=4 / rdoq-level=2 / dynamic-rd=0.00 / no-ssim-rd / signhide / no-tskip / nr-intra=0 / nr-inter=0 / no-constrained-intra / no-strong-intra-smoothing / max-merge=4 / limit-refs=1 / limit-modes / me=3 / subme=5 / merange=38 / temporal-mvp / weightp / weightb / no-analyze-src-pics / deblock=-1:-1 / sao / no-sao-non-deblock / rd=5 / no-early-skip / rskip / no-fast-intra / no-tskip-fast / no-cu-lossless / b-intra / no-splitrd-skip / rdpenalty=0 / psy-rd=2.00 / psy-rdoq=1.00 / no-rd-refine / no-lossless / cbqpoffs=-1 / crqpoffs=-1 / rc=crf / crf=20.0 / qcomp=0.60 / qpstep=4 / stats-write=0 / stats-read=0 / ipratio=1.40 / pbratio=1.20 / aq-mode=3 / aq-strength=0.70 / cutree / zone-count=0 / no-strict-cbr / qg-size=8 / no-rc-grain / qpmax=69 / qpmin=0 / no-const-vbv / sar=0 / overscan=0 / videoformat=5 / range=0 / colorprim=2 / transfer=2 / colormatrix=1 / chromaloc=0 / display-window=0cll=0,0 / min-luma=0 / max-luma=1023 / log2-max-poc-lsb=8 / vui-timing-info / vui-hrd-info / slices=1 / no-opt-qp-pps / no-opt-ref-list-length-pps / no-multi-pass-opt-rps / scenecut-bias=0.05 / no-opt-cu-delta-qp / no-aq-motion / no-hdr / no-hdr-opt / no-dhdr10-opt / no-idr-recovery-sei / analysis-reuse-level=5 / scale-factor=0 / refine-intra=0 / refine-inter=0 / refine-mv=0 / refine-ctu-distortion=0 / no-limit-sao / ctu-info=0 / no-lowpass-dct / refine-analysis-type=0 / copy-pic=1 / max-ausize-factor=1.0 / no-dynamic-refine / no-single-sei / no-hevc-aq / no-svt / no-field / qp-adaptation-range=1.00

Default : Yes

Forced : No

Color range : Limited

Matrix coefficients : BT.709

Audio

ID : 2

Format : FLAC

Format/Info : Free Lossless Audio Codec

Codec ID : A_FLAC

Duration : 2 h 26 min

Bit rate mode : Variable

Bit rate : 1 075 kb/s

Channel(s) : 2 channels

Channel positions : Front: L R

Sampling rate : 48.0 kHz

Frame rate : 11.719 FPS (4096 SPF)

Bit depth : 16 bits

Stream size : 1.10 GiB (12%)

Writing library : libFLAC 1.3.2 (UTC 2017-01-01)

Language : Japanese

Default : Yes

Forced : No

Menu

00:00:00.000 : en:Opening

00:01:25.919 : en:killing bites

00:06:12.372 : en:under a starlit sky

00:10:44.393 : en:way to answer

00:15:40.230 : en:MC

00:16:45.504 : en:one dream

00:21:54.521 : en:colorless fate -version 2018-

00:29:30.185 : en:beyond the horizon

00:35:35.133 : en:1983-schwarzesmarken-

00:40:44.525 : en:MC

00:40:55.286 : en:divine criminal

00:46:04.636 : en:snow of silence

00:51:57.114 : en:BAND PERFORMANCE

00:58:09.861 : en:white relation (IS4 version)

01:05:46.442 : en:breaking dawn

01:10:53.249 : en:late in autumn

01:17:03.702 : en:MC

01:17:26.642 : en:close to you

01:22:29.778 : en:adverse wind

01:26:55.418 : en:sister's noise

01:31:30.026 : en:MC

01:32:09.023 : en:you only live once

01:37:52.575 : en:white forces

01:43:00.716 : en:Like a blink,a short night.

01:49:01.201 : en:MC

01:49:35.694 : en:sky -crossroads version-

01:55:02.729 : en:Edge of the Universe

02:00:54.497 : en:MC

02:01:17.353 : en:Love with You

02:07:34.521 : en:[Encore]:only my railgun

02:11:55.574 : en:black bullet

02:16:20.255 : en:MC

02:18:22.294 : en:Two souls -toward the truth-

02:23:56.794 : en:Ending


文件信息 | 下载本资源 文件总数:24,文件总大小:10.3GB

Info Hash:175f850589d58127ddaaab04b7e15df8d277b928

文件信息:24 个文件, 总大小 10.3GB

Tracker:http://tracker.xfapi.top:6868/announce

Tracker:http://tracker.xfapi.top:6868/scrape

 
  • [Xeon-Raw] fripSide Concert Tour 2018-2019 -infinite synthesis 4-(2019.03.08(金)パシフィコ横浜国立大ホール)[Ma10p_1080p]
    • Bonus
      • [Xeon-Raw] fripSide Concert Tour 2018-2019 -infinite synthesis 4- [Menu][Ma10p_1080p][x265_flac].mkv(25.8MB)
      • [Xeon-Raw] fripSide Logo [Ma10p_1080p][x265_flac].mkv(16.5MB)
      • [Xeon-Raw] NBCUniversal Logo [Ma10p_1080p][x265_flac].mkv(21.3MB)
      • [Xeon-Raw] SPOT [Ma10p_1080p][x265_flac].mkv(77.2MB)
      • [Xeon-Raw] when chance strikes MV making [Ma10p_1080p][x265_flac].mkv(334.5MB)
    • CDs
      • fripSide - infinite synthesis 5.cue(2.2KB)
      • fripSide - infinite synthesis 5.flac(543.4MB)
      • fripSide - infinite synthesis 5.log(4.1KB)
      • fripSide - infinite synthesis 5.utf8.cue(2.2KB)
    • Scans
      • 00.jpg(878.1KB)
      • 01-02.jpg(1.8MB)
      • 03-04.jpg(1.4MB)
      • 05-06.jpg(1.7MB)
      • 07-08.jpg(1.5MB)
      • 09-10.jpg(2MB)
      • 11-12.jpg(1.4MB)
      • 13-14.jpg(1.4MB)
      • 15-16.jpg(1.5MB)
      • 17-18.jpg(1.9MB)
      • 19-20.jpg(1.3MB)
      • 21-22.jpg(1.6MB)
      • 23.jpg(1MB)
    • [Xeon-Raw] fripSide Concert Tour 2018-2019 -infinite synthesis 4- [Ma10p_1080p][x265_flac].mkv(9.0GB)
    • [Xeon-Raw] when chance strikes MV [Ma10p_1080p][x265_flac].mkv(278MB)
 

网友评论(0) | 下载本资源

正在加载评论,请稍候......
发表我的看法(评论内容长度最多允许 1000 字)
评论内容
  
发表评论小贴士:
1.类似「顶、沙发」之类没有营养的文字,对勤劳贡献的发布者来说是令人沮丧的反馈信息。
2.提问之前请再仔细看一遍楼主的说明,或许是您遗漏了。
3.勿催片。请相信动漫字幕组对分享是富有激情的,如果确有更新资源,您一定能搜索到。
4.请勿到处挖坑绊人、招贴广告。既占空间让人厌烦,又没人会搭理,于人于己都无利。
5.如果您发现自己的评论不见了,请参考以上4条。
验证码