首页 » 日剧 » 【2020夏日影】[MagicStar] 我是大哥大!! 电影版 / 今日から俺は!! 劇場版 [WEBDL] [1080p] [AMZN]【生】【修正版】
  • 资源分类:BT分享»日剧
  • 资源提供:日剧更新了
  • 分享情况:  种子:8,下载:247,完成:58
  • 健  康  度:32%
  • 文件大小:5.5GB  (查看文件详情)
  • 发布日期:2021/01/24 20:27:25
  • 下载本站资源,您必须安装相应的P2P下载软件。我们推荐使用BitComet正式版下载BT资源,eMule下载电驴资源。
  • 该资源由网友 日剧更新了 提供,分享目的仅供大家学习与参考,如有侵权,请联系:[email protected]及时删除!

资源介绍 | 下载本资源


HD 1080p from Prime Video. Upload original stream version with DDP5.1.
alt text
alt text

General Unique ID                      : 222461172947635015882670873679147017878 (0xA75C76A449B9C2F930EB7E9EDB9FA696) Complete name                  : Kyou.Kara.Ore.Wa.2020.1080p.WEB-DL.DDP5.1.H.264-MagicStar.mkv Format                         : Matroska Format version                 : Version 4 File size                      : 5.54 GiB Duration                       : 1 h 54 min Overall bit rate               : 6 952 kb/s Encoded date                   : UTC 2021-01-24 08:53:43 Writing application            : mkvmerge v50.0.0 ('Awakenings') 64-bit Writing library                : libebml v1.4.0 + libmatroska v1.6.2 Cover                          : Yes Attachments                    : cover.png  Video ID                             : 1 Format                         : AVC Format/Info                    : Advanced Video Codec Format profile                 : [email protected] Format settings                : CABAC / 4 Ref Frames Format settings, CABAC         : Yes Format settings, Reference fra : 4 frames Codec ID                       : V_MPEG4/ISO/AVC Duration                       : 1 h 54 min Bit rate                       : 6 310 kb/s Width                          : 1 920 pixels Height                         : 1 040 pixels Display aspect ratio           : 1.85:1 Frame rate mode                : Constant Frame rate                     : 23.976 (24000/1001) FPS Color space                    : YUV Chroma subsampling             : 4:2:0 Bit depth                      : 8 bits Scan type                      : Progressive Bits/(Pixel*Frame)             : 0.132 Stream size                    : 5.03 GiB (91%) Default                        : Yes Forced                         : No Color range                    : Limited Color primaries                : BT.709 Transfer characteristics       : BT.709 Matrix coefficients            : BT.709  Audio ID                             : 2 Format                         : E-AC-3 Format/Info                    : Enhanced AC-3 Commercial name                : Dolby Digital Plus Codec ID                       : A_EAC3 Duration                       : 1 h 54 min Bit rate mode                  : Constant Bit rate                       : 640 kb/s Channel(s)                     : 6 channels Channel layout                 : L R C LFE Ls Rs Sampling rate                  : 48.0 kHz Frame rate                     : 31.250 FPS (1536 SPF) Compression mode               : Lossy Stream size                    : 522 MiB (9%) Language                       : Japanese Service kind                   : Complete Main Default                        : Yes Forced                         : No

文件信息 | 下载本资源 文件总数:1,文件总大小:5.5GB

Info Hash:e621192c6cb9b1e90dcc29ee43fd406cede1aea7

文件信息:1 个文件, 总大小 5.5GB

Tracker:http://tracker.xfapi.top:6868/announce

Tracker:http://tracker.xfapi.top:6868/scrape

 
  • [MagicStar] Kyou Kara Ore wa!! 2020 [WEBDL] [1080p]
    • Kyou.Kara.Ore.Wa.2020.1080p.WEB-DL.DDP5.1.H.264-MagicStar.mkv(5.5GB)
 

网友评论(0) | 下载本资源

正在加载评论,请稍候......
发表我的看法(评论内容长度最多允许 1000 字)
评论内容
  
发表评论小贴士:
1.类似「顶、沙发」之类没有营养的文字,对勤劳贡献的发布者来说是令人沮丧的反馈信息。
2.提问之前请再仔细看一遍楼主的说明,或许是您遗漏了。
3.勿催片。请相信动漫字幕组对分享是富有激情的,如果确有更新资源,您一定能搜索到。
4.请勿到处挖坑绊人、招贴广告。既占空间让人厌烦,又没人会搭理,于人于己都无利。
5.如果您发现自己的评论不见了,请参考以上4条。
验证码