首页 » 日剧 » [MagicStar] 我的杀意恋爱了 最终回 / ボクの殺意が恋をした EP10 END [WEBDL] [1080p] [HULU]【生】【附日字】
  • 资源分类:BT分享»日剧
  • 资源提供:日剧更新了
  • 分享情况:  种子:29,下载:214,完成:46
  • 健  康  度:50%
  • 文件大小:995.2MB  (查看文件详情)
  • 发布日期:2021/09/14 07:44:23
  • 下载本站资源,您必须安装相应的P2P下载软件。我们推荐使用BitComet正式版下载BT资源,eMule下载电驴资源。
  • 该资源由网友 日剧更新了 提供,分享目的仅供大家学习与参考,如有侵权,请联系:[email protected]及时删除!

资源介绍 | 下载本资源


HD 1080p from HULU JAPAN.
alt text
alt text

General Unique ID                      : 76239691038774681169465459896867006422 (0x395B3AFAFC63372F76158B261096A7D6) Complete name                  : Boku.no.Satsui.ga.Koi.wo.Shita.EP10.1080p.HULU.WEB-DL.AAC2.0.H.264-MagicStar.mkv Format                         : Matroska Format version                 : Version 4 File size                      : 995 MiB Duration                       : 45 min 2 s Overall bit rate               : 3 089 kb/s Encoded date                   : UTC 2021-09-13 10:09:22 Writing application            : mkvmerge v50.0.0 ('Awakenings') 64-bit Writing library                : libebml v1.4.0 + libmatroska v1.6.2 Cover                          : Yes Attachments                    : cover.png  Video ID                             : 1 Format                         : AVC Format/Info                    : Advanced Video Codec Format profile                 : [email protected] Format settings                : CABAC / 4 Ref Frames Format settings, CABAC         : Yes Format settings, Reference fra : 4 frames Codec ID                       : V_MPEG4/ISO/AVC Duration                       : 45 min 2 s Bit rate                       : 2 961 kb/s Width                          : 1 920 pixels Height                         : 1 080 pixels Display aspect ratio           : 16:9 Frame rate mode                : Constant Frame rate                     : 29.970 (29970/1000) FPS Original frame rate            : 29.970 (30000/1001) FPS Color space                    : YUV Chroma subsampling             : 4:2:0 Bit depth                      : 8 bits Scan type                      : Progressive Bits/(Pixel*Frame)             : 0.048 Stream size                    : 954 MiB (96%) Default                        : Yes Forced                         : No Color range                    : Limited Color primaries                : BT.709 Transfer characteristics       : BT.709 Matrix coefficients            : BT.709  Audio ID                             : 2 Format                         : AAC LC Format/Info                    : Advanced Audio Codec Low Complexity Codec ID                       : A_AAC-2 Duration                       : 45 min 2 s Bit rate                       : 125 kb/s Channel(s)                     : 2 channels Channel layout                 : L R Sampling rate                  : 48.0 kHz Frame rate                     : 46.875 FPS (1024 SPF) Compression mode               : Lossy Stream size                    : 40.4 MiB (4%) Language                       : Japanese Default                        : Yes Forced                         : No

文件信息 | 下载本资源 文件总数:2,文件总大小:995.2MB

Info Hash:33c0c0b6e0113a953e1aff62f0ef668be01ff37c

文件信息:2 个文件, 总大小 995.2MB

Tracker:http://tracker.xfapi.top:6868/announce

Tracker:http://tracker.xfapi.top:6868/scrape

 
  • [MagicStar] Boku no Satsui ga Koi wo Shita EP10 END [WEBDL] [1080p] [HULU] [JPN_SUB]
    • Boku.no.Satsui.ga.Koi.wo.Shita.EP10.1080p.HULU.WEB-DL.AAC2.0.H.264-MagicStar.mkv(995.1MB)
    • Boku.no.Satsui.ga.Koi.wo.Shita.EP10.1080p.HULU.WEB-DL.AAC2.0.H.264-MagicStar.srt(44.2KB)
 

网友评论(0) | 下载本资源

正在加载评论,请稍候......
发表我的看法(评论内容长度最多允许 1000 字)
评论内容
  
发表评论小贴士:
1.类似「顶、沙发」之类没有营养的文字,对勤劳贡献的发布者来说是令人沮丧的反馈信息。
2.提问之前请再仔细看一遍楼主的说明,或许是您遗漏了。
3.勿催片。请相信动漫字幕组对分享是富有激情的,如果确有更新资源,您一定能搜索到。
4.请勿到处挖坑绊人、招贴广告。既占空间让人厌烦,又没人会搭理,于人于己都无利。
5.如果您发现自己的评论不见了,请参考以上4条。
验证码